×

¿Problemas para descargar con Mozilla, EDGE? Deshabilita la opción "Abrir vinculos en una pestaña nueva" tal como lo muestra ésta imagen.

Dragon Ball El camino al poder (1996) REMUX 1080p Latino – CMHDD

276 vistas

Información de Dragon Ball El camino al poder (1996) REMUX 1080p Latino – CMHDD

Datos de la película

  • Calidad: Full 1080p
  • Audio: Español Latino AC3 2.0
  • Subtitulos: No
  • Resolución: 1920x1080p
  • Formato: MKV
  • Codec: H.264
  • Encoder: Dracarys
  • Mediainfo: Clic para Mostrar Datos Ver
  • Format                      : Matroska
    Format version              : Version 4
    File size                   : 11.0 GiB
    Duration                    : 1 h 19 min
    Overall bit rate mode       : Constant
    Overall bit rate            : 19.8 Mb/s
    Movie name                  : Dragon Ball: El camino al poder (1996) REMUX 1080p Latino - CMHDD
    Encoded date                : UTC 2023-03-14 22:47:45
    Writing application         : mkvmerge v47.0.0 ('Black Flag') 64-bit
    Writing library             : libebml v1.3.10 + libmatroska v1.5.2

    Video
    ID                          : 1
    Format                      : AVC
    Format/Info                 : Advanced Video Codec
    Format profile              : High@L4.1
    Format settings             : CABAC / 4 Ref Frames
    Format settings, CABAC      : Yes
    Format settings, Reference  : 4 frames
    Codec ID                    : V_MPEG4/ISO/AVC
    Duration                    : 1 h 19 min
    Bit rate mode               : Constant
    Bit rate                    : 20.0 Mb/s
    Width                       : 1 920 pixels
    Height                      : 1 080 pixels
    Display aspect ratio        : 16:9
    Frame rate mode             : Constant
    Frame rate                  : 23.976 (24000/1001) FPS
    Standard                    : NTSC
    Color space                 : YUV
    Chroma subsampling          : 4:2:0
    Bit depth                   : 8 bits
    Scan type                   : Progressive
    Bits/(Pixel*Frame)          : 0.402
    Stream size                 : 10.9 GiB (99%)
    Default                     : Yes
    Forced                      : No
    Color range                 : Limited
    Color primaries             : BT.709
    Transfer characteristics    : BT.709
    Matrix coefficients         : BT.709

    Audio
    ID                          : 2
    Format                      : AC-3
    Format/Info                 : Audio Coding 3
    Commercial name             : Dolby Digital
    Codec ID                    : A_AC3
    Duration                    : 1 h 19 min
    Bit rate mode               : Constant
    Bit rate                    : 192 kb/s
    Channel(s)                  : 2 channels
    Channel layout              : L R
    Sampling rate               : 48.0 kHz
    Frame rate                  : 31.250 FPS (1536 SPF)
    Compression mode            : Lossy
    Stream size                 : 110 MiB (1%)
    Language                    : Spanish
    Service kind                : Complete Main
    Default                     : Yes
    Forced                      : No

  • Peso: 11.0 GiB

Sinopsis

A retelling of Dragon Ball’s origin with a different take on the meeting of Goku, Bulma, and Kame-Sen’nin. It also retells the Red Ribbon Army story; but this time they find Goku rather than Goku finding them.

Ficha técnica

Video trailer de la película

Enlaces de descarga

Rip de Bluray

Descargar Dragon Ball El camino al poder (1996) REMUX 1080p Latino – CMHDD


Aportes de DPeliculasHDmega la pass es:dpeliculashdmega.org Aportes de CinemaniaHD la pass es:cinemaniahdd.com Aportes recientes:cinemaniahdd.net
Guardado en : Adventure , Animation , Fantasy

Películas relacionadas

  • Your Name (2016) REMUX 4K HDR Latino – CMHDD

    Your Name (2016) REMUX 4K HDR Latino – CMHDD

    2016
    Your Name (2016) REMUX 4K HDR Latino – CMHDD

    1h 46m 2016

    High schoolers Mitsuha and Taki are complete strangers living separate lives. But one night, they suddenly...

    Director: Yoshitoshi Shinomiya

    Género: Animation

    Actores: Yuuki Shin

  • Blue Beetle (2023) Full HD 1080p Latino-CMHDD

    Blue Beetle (2023) Full HD 1080p Latino-CMHDD

    2023
    Blue Beetle (2023) Full HD 1080p Latino-CMHDD

    2h 8m 2023

    Descargar Blue Beetle (2023) Full HD 1080p Latino-CMHDD. Jaime Reyes, recién licenciado, regresa a casa...

    Director: K.C. Hodenfield

    Género: Action

    Actores: Yuli Zorrilla

  • Mansión embrujada (2023) HD 1080p Latino

    Mansión embrujada (2023) HD 1080p Latino

    2023
    Mansión embrujada (2023) HD 1080p Latino

    2h 3m 2023

    Descargar Mansión embrujada (2023) HD 1080p Latino. Inspirada en la clásica atracción del parque temático,...

    Director: Tyler Wade Vaughn

    Género: Comedy

    Actores: Winona Ryder

  • Mansión embrujada (2023) REMUX 1080p Latino

    Mansión embrujada (2023) REMUX 1080p Latino

    2023
    Mansión embrujada (2023) REMUX 1080p Latino

    2h 3m 2023

    Descargar Mansión embrujada (2023) REMUX 1080p Latino. Inspirada en la clásica atracción del parque...

    Director: Tyler Wade Vaughn

    Género: Comedy

    Actores: Winona Ryder

descargar Dragon Ball El camino al poder (1996) REMUX 1080p Latino – CMHDD Full 1080p 1080p gratis, Dragon Ball El camino al poder (1996) REMUX 1080p Latino – CMHDD Full 1080p mega 1 link, Dragon Ball El camino al poder (1996) REMUX 1080p Latino – CMHDD Full 1080p pelicula completa, descargar Dragon Ball El camino al poder (1996) REMUX 1080p Latino – CMHDD Full 1080p gratis en mega.

Dragon Ball El camino al poder (1996) REMUX 1080p Latino – CMHDD pelicula full hd, Dragon Ball El camino al poder (1996) REMUX 1080p Latino – CMHDD mega latino, Dragon Ball El camino al poder (1996) REMUX 1080p Latino – CMHDD 4k latino, Dragon Ball El camino al poder (1996) REMUX 1080p Latino – CMHDD pelicula completa, Dragon Ball El camino al poder (1996) REMUX 1080p Latino – CMHDD descargar gratis, descargar Dragon Ball El camino al poder (1996) REMUX 1080p Latino – CMHDD pelicula latino, Dragon Ball El camino al poder (1996) REMUX 1080p Latino – CMHDD 1 link mega, Dragon Ball El camino al poder (1996) REMUX 1080p Latino – CMHDD 1 link google drive, Dragon Ball El camino al poder (1996) REMUX 1080p Latino – CMHDD hd 1080p latino.
Comentarios 0