×

¿Problemas para descargar con Mozilla, EDGE? Deshabilita la opción "Abrir vinculos en una pestaña nueva" tal como lo muestra ésta imagen.

El hombre araña (2002) 35MM OPEN MATTE 1440p Latino-CMHDD

367 vistas

Información de El hombre araña (2002) 35MM OPEN MATTE 1440p Latino-CMHDD

Datos de la película

  • Calidad: 1080p
  • Audio: Se especifica abajo de la Sinopsis
  • Subtitulos: Español Latino SRT - Ingles SRT
  • Resolución: 1650x1440p
  • Formato: MKV
  • Codec: H.264
  • Encoder: CinefiloCool
  • Mediainfo: Clic para Mostrar Datos Ver
  • Spider-Man.2002.35MM.OPEN.MATTE.1440p.x264.Latino-CC@CMHDD.mkv
    Format                      : Matroska
    Format version              : Version 4
    File size                   : 22.9 GiB
    Duration                    : 2 h 0 min
    Overall bit rate mode       : Variable
    Overall bit rate            : 27.1 Mb/s
    Movie name                  : Spider-Man (2002) CinemaniaHDD.Net
    Encoded date                : UTC 2023-11-06 05:12:52
    Writing application         : mkvmerge v56.1.0 ('My Friend') 64-bit
    Writing library             : libebml v1.4.2 + libmatroska v1.6.4
    Attachments                 : CINEMANIAHD.png

    Video
    ID                          : 1
    Format                      : AVC
    Format/Info                 : Advanced Video Codec
    Format profile              : Main@L4.1
    Format settings             : CABAC / 3 Ref Frames
    Format settings, CABAC      : Yes
    Format settings, Reference  : 3 frames
    Codec ID                    : V_MPEG4/ISO/AVC
    Duration                    : 2 h 0 min
    Bit rate                    : 25.0 Mb/s
    Width                       : 1 650 pixels
    Height                      : 1 440 pixels
    Display aspect ratio        : 1.146
    Frame rate mode             : Constant
    Frame rate                  : 24.000 FPS
    Color space                 : YUV
    Chroma subsampling          : 4:2:0
    Bit depth                   : 8 bits
    Scan type                   : Progressive
    Bits/(Pixel*Frame)          : 0.438
    Stream size                 : 21.1 GiB (92%)
    Title                       : HD1080p [CinemaniaHDD]
    Default                     : Yes
    Forced                      : Yes
    Color range                 : Limited
    Color primaries             : BT.709
    Transfer characteristics    : BT.709
    Matrix coefficients         : BT.709

    Audio #1
    ID                          : 2
    Format                      : AC-3
    Format/Info                 : Audio Coding 3
    Commercial name             : Dolby Digital
    Codec ID                    : A_AC3
    Duration                    : 2 h 0 min
    Bit rate mode               : Constant
    Bit rate                    : 640 kb/s
    Channel(s)                  : 6 channels
    Channel layout              : L R C LFE Ls Rs
    Sampling rate               : 48.0 kHz
    Frame rate                  : 31.250 FPS (1536 SPF)
    Compression mode            : Lossy
    Delay relative to video     : -32 ms
    Stream size                 : 554 MiB (2%)
    Title                       : Español Latino [CinemaniaHDD]
    Language                    : Spanish
    Service kind                : Complete Main
    Default                     : Yes
    Forced                      : Yes

    Audio #2
    ID                          : 3
    Format                      : FLAC
    Format/Info                 : Free Lossless Audio Codec
    Codec ID                    : A_FLAC
    Duration                    : 2 h 0 min
    Bit rate mode               : Variable
    Bit rate                    : 1 492 kb/s
    Channel(s)                  : 6 channels
    Channel layout              : L R C LFE Lb Rb
    Sampling rate               : 44.1 kHz
    Frame rate                  : 9.570 FPS (4608 SPF)
    Bit depth                   : 16 bits
    Compression mode            : Lossless
    Delay relative to video     : 3 ms
    Stream size                 : 1.26 GiB (6%)
    Title                       : Ingles [CinemaniaHDD]
    Writing library             : Lavf59.27.100
    Language                    : English
    Default                     : No
    Forced                      : No

    Text #1
    ID                          : 4
    Format                      : UTF-8
    Codec ID                    : S_TEXT/UTF8
    Codec ID/Info               : UTF-8 Plain Text
    Duration                    : 1 h 50 min
    Bit rate                    : 0 b/s
    Count of elements           : 25
    Stream size                 : 659 Bytes (0%)
    Title                       : Forzados-SRT [CinemaniaHDD]
    Language                    : Spanish
    Default                     : Yes
    Forced                      : Yes

    Text #2
    ID                          : 5
    Format                      : UTF-8
    Codec ID                    : S_TEXT/UTF8
    Codec ID/Info               : UTF-8 Plain Text
    Duration                    : 1 h 54 min
    Bit rate                    : 49 b/s
    Count of elements           : 1195
    Stream size                 : 41.5 KiB (0%)
    Title                       : Español-SRT [CinemaniaHDD]
    Language                    : Spanish
    Default                     : No
    Forced                      : No

    Text #3
    ID                          : 6
    Format                      : UTF-8
    Codec ID                    : S_TEXT/UTF8
    Codec ID/Info               : UTF-8 Plain Text
    Duration                    : 1 h 52 min
    Bit rate                    : 49 b/s
    Count of elements           : 1224
    Stream size                 : 40.7 KiB (0%)
    Title                       : Ingles-SRT [CinemaniaHDD]
    Language                    : English
    Default                     : No
    Forced                      : No

  • Peso: 22.9 GiB

Sinopsis

Descargar El hombre araña (2002) 35MM OPEN MATTE 1440p Latino-CMHDD. Peter Parker es un joven y tímido estudiante que vive con su tía May y su tío Ben desde la muerte de sus padres. Un día es mordido por una araña que ha sido modificada genéticamente, descubriendo al día siguiente que posee unos poderes poco habituales: tiene la fuerza y agilidad de una araña.

Audio Español Latino AC3 5.1 – Ingles FLAC 5.1
Disponible y Exclusivo Solo Para VIP!!!

Notas:
– version Open Matte especial que a diferencia de los tradicionales, utiliza el escaneo completo de los 35mm
– Para ver la comparacion de fotogramas click Aqui
– En algunas tomas incluso se puede observar el microfono, en otras tiene marcos negros inferiores y superiores
(Ahora que lo pienso dado esto ultimo, un termino mas exacto tambien podria ser «IMAX») Enjoy!!! 😀

Ficha técnica

Video trailer de la película

Enlaces de descarga

Rip de Bluray

Descargar El hombre araña (2002) 35MM OPEN MATTE 1440p Latino-CMHDD


Aportes de DPeliculasHDmega la pass es:dpeliculashdmega.org Aportes de CinemaniaHD la pass es:cinemaniahdd.com Aportes recientes:cinemaniahdd.net
Guardado en : Acción , Fantasía , HD 1080p , OPEN MATTE

Películas relacionadas

  • Milagros Inesperados (1999) 1080p Latino-CMHDD

    Milagros Inesperados (1999) 1080p Latino-CMHDD

    1999
    Milagros Inesperados (1999) 1080p Latino-CMHDD

    3h 9m 1999

    Descargar Milagros Inesperados (1999) 1080p Latino-CMHDD. En el sur de los Estados Unidos, en plena Depresión,...

    Director: Susan Malerstein

    Género: Crimen

    Actores: William Sadler

  • Milagros Inesperados (1999) REMUX 1080p Latino-CMHDD

    Milagros Inesperados (1999) REMUX 1080p Latino-CMHDD

    1999
    Milagros Inesperados (1999) REMUX 1080p Latino-CMHDD

    3h 9m 1999

    Descargar Milagros Inesperados (1999) REMUX 1080p Latino-CMHDD. En el sur de los Estados Unidos, en plena...

    Director: Susan Malerstein

    Género: Crimen

    Actores: William Sadler

  • Wanted Man (2024) HD 1080p Latino

    Wanted Man (2024) HD 1080p Latino

    2024
    Wanted Man (2024) HD 1080p Latino

    1h 25m 2024

    Descargar Wanted Man (2024) HD 1080p Latino. Sigue a un oficial de policía que debe recuperar a un testigo...

    Director: Kevin Leslie

    Género: Acción

    Actores: Xzavier Estrada

  • Wanted Man (2024) PLACEBO Full HD 1080p Latino

    Wanted Man (2024) PLACEBO Full HD 1080p Latino

    2024
    Wanted Man (2024) PLACEBO Full HD 1080p Latino

    1h 25m 2024

    Descargar Wanted Man (2024) PLACEBO Full HD 1080p Latino. Sigue a un oficial de policía que debe recuperar...

    Director: Kevin Leslie

    Género: Acción

    Actores: Xzavier Estrada

descargar El hombre araña (2002) 35MM OPEN MATTE 1440p Latino-CMHDD 1080p 1080p gratis, El hombre araña (2002) 35MM OPEN MATTE 1440p Latino-CMHDD 1080p mega 1 link, El hombre araña (2002) 35MM OPEN MATTE 1440p Latino-CMHDD 1080p pelicula completa, descargar El hombre araña (2002) 35MM OPEN MATTE 1440p Latino-CMHDD 1080p gratis en mega.

El hombre araña (2002) 35MM OPEN MATTE 1440p Latino-CMHDD pelicula full hd, El hombre araña (2002) 35MM OPEN MATTE 1440p Latino-CMHDD mega latino, El hombre araña (2002) 35MM OPEN MATTE 1440p Latino-CMHDD 4k latino, El hombre araña (2002) 35MM OPEN MATTE 1440p Latino-CMHDD pelicula completa, El hombre araña (2002) 35MM OPEN MATTE 1440p Latino-CMHDD descargar gratis, descargar El hombre araña (2002) 35MM OPEN MATTE 1440p Latino-CMHDD pelicula latino, El hombre araña (2002) 35MM OPEN MATTE 1440p Latino-CMHDD 1 link mega, El hombre araña (2002) 35MM OPEN MATTE 1440p Latino-CMHDD 1 link google drive, El hombre araña (2002) 35MM OPEN MATTE 1440p Latino-CMHDD hd 1080p latino.
Comentarios 2
  • Jose moyano - 06 noviembre, 2023

    Hola la van a subir en una calidad que pese menos … años y años buscándola en 35mm
    Gracias

    • CinemaniaHDD - 06 noviembre, 2023

      hola, no. esta es la única calidad que se subirá.