×

¿Problemas para descargar con Mozilla, EDGE? Deshabilita la opción "Abrir vinculos en una pestaña nueva" tal como lo muestra ésta imagen.

Your Name (2016) REMUX 4K HDR Latino – CMHDD

172 vistas

Información de Your Name (2016) REMUX 4K HDR Latino – CMHDD

Datos de la película

  • Calidad: 4K HDR
  • Audio: Español Latino DTS 5.1 BLURAY - Ingles DTS 5.1 BLURAY
  • Subtitulos: Español Latino PGS
  • Resolución: 3840x2160p
  • Formato: MKV
  • Codec: H.264
  • Encoder: Dracarys
  • Mediainfo: Clic para Mostrar Datos Ver
  • Format                      : Matroska
    Format version              : Version 4
    File size                   : 51.8 GiB
    Duration                    : 1 h 46 min
    Overall bit rate mode       : Variable
    Overall bit rate            : 69.5 Mb/s
    Movie name                  : Your Name (2016) REMUX 4K HDR Latino - CMHDD
    Encoded date                : UTC 2023-10-25 05:31:18
    Writing application         : mkvmerge v47.0.0 ('Black Flag') 64-bit
    Writing library             : libebml v1.3.10 + libmatroska v1.5.2

    Video
    ID                          : 1
    Format                      : HEVC
    Format/Info                 : High Efficiency Video Coding
    Format profile              : Main 10@L5.1@High
    HDR format                  : SMPTE ST 2086, HDR10 compatible
    Codec ID                    : V_MPEGH/ISO/HEVC
    Duration                    : 1 h 46 min
    Bit rate                    : 61.0 Mb/s
    Width                       : 3 840 pixels
    Height                      : 2 160 pixels
    Display aspect ratio        : 16:9
    Frame rate mode             : Constant
    Frame rate                  : 23.976 (24000/1001) FPS
    Standard                    : Component
    Color space                 : YUV
    Chroma subsampling          : 4:2:0 (Type 2)
    Bit depth                   : 10 bits
    Bits/(Pixel*Frame)          : 0.307
    Stream size                 : 45.4 GiB (88%)
    Language                    : English
    Default                     : Yes
    Forced                      : Yes
    Color range                 : Limited
    Color primaries             : BT.2020
    Transfer characteristics    : PQ
    Matrix coefficients         : BT.2020 non-constant
    Mastering display color pri : BT.2020
    Mastering display luminance : min: 0.0000 cd/m2, max: 10000 cd/m2
    Maximum Content Light Level : 4996 cd/m2
    Maximum Frame-Average Light : 297 cd/m2

    Audio #1
    ID                          : 2
    Format                      : AC-3
    Format/Info                 : Audio Coding 3
    Commercial name             : Dolby Digital
    Codec ID                    : A_AC3
    Duration                    : 1 h 46 min
    Bit rate mode               : Constant
    Bit rate                    : 640 kb/s
    Channel(s)                  : 6 channels
    Channel layout              : L R C LFE Ls Rs
    Sampling rate               : 48.0 kHz
    Frame rate                  : 31.250 FPS (1536 SPF)
    Compression mode            : Lossy
    Delay relative to video     : 24 ms
    Stream size                 : 488 MiB (1%)
    Language                    : Spanish
    Service kind                : Complete Main
    Default                     : Yes
    Forced                      : No

    Audio #2
    ID                          : 3
    Format                      : DTS XLL
    Format/Info                 : Digital Theater Systems
    Commercial name             : DTS-HD Master Audio
    Codec ID                    : A_DTS
    Duration                    : 1 h 46 min
    Bit rate mode               : Variable
    Bit rate                    : 3 565 kb/s
    Channel(s)                  : 6 channels
    Channel layout              : C L R Ls Rs LFE
    Sampling rate               : 48.0 kHz
    Frame rate                  : 93.750 FPS (512 SPF)
    Bit depth                   : 24 bits
    Compression mode            : Lossless
    Delay relative to video     : 3 ms
    Stream size                 : 2.66 GiB (5%)
    Language                    : Spanish
    Default                     : No
    Forced                      : No

    Audio #3
    ID                          : 4
    Format                      : FLAC
    Format/Info                 : Free Lossless Audio Codec
    Codec ID                    : A_FLAC
    Duration                    : 1 h 46 min
    Bit rate mode               : Variable
    Bit rate                    : 572 kb/s
    Channel(s)                  : 2 channels
    Channel layout              : L R
    Sampling rate               : 48.0 kHz
    Frame rate                  : 11.719 FPS (4096 SPF)
    Bit depth                   : 16 bits
    Compression mode            : Lossless
    Stream size                 : 436 MiB (1%)
    Writing library             : libFLAC 1.3.2 (UTC 2017-01-01)
    Language                    : Japanese
    Default                     : No
    Forced                      : No
    MD5 of the unencoded conten : 10225D8DE1C4018FD7A2BC09CE5BCEFF

    Audio #4
    ID                          : 5
    Format                      : DTS XLL
    Format/Info                 : Digital Theater Systems
    Commercial name             : DTS-HD Master Audio
    Codec ID                    : A_DTS
    Duration                    : 1 h 46 min
    Bit rate mode               : Variable
    Bit rate                    : 3 594 kb/s
    Channel(s)                  : 6 channels
    Channel layout              : C L R Ls Rs LFE
    Sampling rate               : 48.0 kHz
    Frame rate                  : 93.750 FPS (512 SPF)
    Bit depth                   : 24 bits
    Compression mode            : Lossless
    Stream size                 : 2.68 GiB (5%)
    Language                    : Japanese
    Default                     : No
    Forced                      : No

    Audio #5
    ID                          : 6
    Format                      : AC-3
    Format/Info                 : Audio Coding 3
    Commercial name             : Dolby Digital
    Codec ID                    : A_AC3
    Duration                    : 1 h 46 min
    Bit rate mode               : Constant
    Bit rate                    : 192 kb/s
    Channel(s)                  : 2 channels
    Channel layout              : L R
    Sampling rate               : 48.0 kHz
    Frame rate                  : 31.250 FPS (1536 SPF)
    Compression mode            : Lossy
    Stream size                 : 146 MiB (0%)
    Language                    : Japanese
    Service kind                : Complete Main
    Default                     : No
    Forced                      : No

    Text
    ID                          : 7
    Format                      : PGS
    Muxing mode                 : zlib
    Codec ID                    : S_HDMV/PGS
    Codec ID/Info               : Picture based subtitle format used on BDs/HD-DVDs
    Duration                    : 1 h 45 min
    Bit rate                    : 34.4 kb/s
    Frame rate                  : 0.338 FPS
    Count of elements           : 2137
    Stream size                 : 26.0 MiB (0%)
    Language                    : Spanish
    Default                     : No
    Forced                      : No

    Menu
    00:00:00.000                : Глава 01
    00:03:26.289                : Глава 02
    00:05:13.313                : Глава 03
    00:08:37.350                : Глава 04
    00:09:38.536                : Глава 05
    00:12:11.355                : Глава 06
    00:13:43.614                : Глава 07
    00:14:32.413                : Глава 08
    00:16:12.930                : Глава 09
    00:17:22.541                : Глава 10
    00:20:45.744                : Глава 11
    00:22:06.408                : Глава 12
    00:22:57.959                : Глава 13
    00:23:28.990                : Глава 14
    00:25:42.040                : Глава 15
    00:27:06.499                : Глава 16
    00:29:53.583                : Глава 17
    00:32:43.628                : Глава 18
    00:37:27.036                : Глава 19
    00:41:57.806                : Глава 20
    00:44:01.764                : Глава 21
    00:45:54.042                : Глава 22
    00:48:28.697                : Глава 23
    00:51:22.329                : Глава 24
    00:53:01.428                : Глава 25
    00:56:53.910                : Глава 26
    00:59:04.457                : Глава 27
    01:03:42.360                : Глава 28
    01:08:39.532                : Глава 29
    01:09:44.972                : Глава 30
    01:11:25.781                : Глава 31
    01:16:42.514                : Глава 32
    01:21:02.983                : Глава 33
    01:32:26.916                : Глава 34
    01:37:41.981                : Глава 35

     

  • Peso: 51.8 GiB

Sinopsis

High schoolers Mitsuha and Taki are complete strangers living separate lives. But one night, they suddenly switch places. Mitsuha wakes up in Taki’s body, and he in hers. This bizarre occurrence continues to happen randomly, and the two must adjust their lives around each other.

Ficha técnica

Video trailer de la película

Enlaces de descarga

Rip de Bluray

Descargar Your Name (2016) REMUX 4K HDR Latino – CMHDD




Aportes de DPeliculasHDmega la pass es:dpeliculashdmega.org Aportes de CinemaniaHD la pass es:cinemaniahdd.com Aportes recientes:cinemaniahdd.net
Guardado en : Animation , Drama , Romance

Películas relacionadas

descargar Your Name (2016) REMUX 4K HDR Latino – CMHDD 4K HDR 1080p gratis, Your Name (2016) REMUX 4K HDR Latino – CMHDD 4K HDR mega 1 link, Your Name (2016) REMUX 4K HDR Latino – CMHDD 4K HDR pelicula completa, descargar Your Name (2016) REMUX 4K HDR Latino – CMHDD 4K HDR gratis en mega.

Your Name (2016) REMUX 4K HDR Latino – CMHDD pelicula full hd, Your Name (2016) REMUX 4K HDR Latino – CMHDD mega latino, Your Name (2016) REMUX 4K HDR Latino – CMHDD 4k latino, Your Name (2016) REMUX 4K HDR Latino – CMHDD pelicula completa, Your Name (2016) REMUX 4K HDR Latino – CMHDD descargar gratis, descargar Your Name (2016) REMUX 4K HDR Latino – CMHDD pelicula latino, Your Name (2016) REMUX 4K HDR Latino – CMHDD 1 link mega, Your Name (2016) REMUX 4K HDR Latino – CMHDD 1 link google drive, Your Name (2016) REMUX 4K HDR Latino – CMHDD hd 1080p latino.
Comentarios 0