×

¿Problemas para descargar con Mozilla, EDGE? Deshabilita la opción "Abrir vinculos en una pestaña nueva" tal como lo muestra ésta imagen.

Mansión embrujada (2023) HD 1080p Latino

198 vistas

Información de Mansión embrujada (2023) HD 1080p Latino

Datos de la película

  • Calidad: 1080p
  • Audio: Español Latino AC3 2.0
  • Subtitulos: Español Latino SRT- FORZADOS SRT
  • Resolución: 1920x804p
  • Formato: MKV
  • Codec: H.264
  • Encoder: Melkor
  • Mediainfo: Clic para Mostrar Datos Ver
  • Mansion Embrujada (2023) HD 1080p Latino.mkv
    Format                      : Matroska
    Format version              : Version 4
    File size                   : 3.96 GiB
    Duration                    : 2 h 2 min
    Overall bit rate            : 4 608 kb/s
    Movie name                  : Haunted Mansion (2023) CinemaniaHDD.Net
    Encoded date                : UTC 2023-10-15 19:42:46
    Writing application         : mkvmerge v56.1.0 ('My Friend') 64-bit
    Writing library             : libebml v1.4.2 + libmatroska v1.6.4
    Attachments                 : CINEMANIAHD.png
    Site                        : CinemaniaHDD.Net
    Uploader                    : Melkor

    Video
    ID                          : 1
    Format                      : AVC
    Format/Info                 : Advanced Video Codec
    Format profile              : High@L4.1
    Format settings             : CABAC / 5 Ref Frames
    Format settings, CABAC      : Yes
    Format settings, Reference  : 5 frames
    Codec ID                    : V_MPEG4/ISO/AVC
    Duration                    : 2 h 2 min
    Bit rate                    : 3 500 kb/s
    Width                       : 1 920 pixels
    Height                      : 804 pixels
    Display aspect ratio        : 2.40:1
    Frame rate mode             : Constant
    Frame rate                  : 23.976 (24000/1001) FPS
    Color space                 : YUV
    Chroma subsampling          : 4:2:0
    Bit depth                   : 8 bits
    Scan type                   : Progressive
    Bits/(Pixel*Frame)          : 0.095
    Stream size                 : 3.02 GiB (76%)
    Title                       : HD1080p [CinemaniaHDD]
    Writing library             : x264 core 163 r3059 b684ebe0
    Encoding settings           : cabac=1 / ref=5 / deblock=1:-1:-1 / analyse=0x3:0x133 / me=umh / subme=9 / psy=1 / psy_rd=1.00:0.15 / mixed_ref=1 / me_range=16 / chroma_me=1 / trellis=2 / 8x8dct=1 / cqm=0 / deadzone=21,11 / fast_pskip=1 / chroma_qp_offset=-3 / threads=24 / lookahead_threads=2 / sliced_threads=0 / nr=0 / decimate=1 / interlaced=0 / bluray_compat=0 / constrained_intra=0 / bframes=3 / b_pyramid=2 / b_adapt=2 / b_bias=0 / direct=3 / weightb=1 / open_gop=0 / weightp=2 / keyint=240 / keyint_min=24 / scenecut=40 / intra_refresh=0 / rc_lookahead=60 / rc=abr / mbtree=1 / bitrate=3500 / ratetol=1.0 / qcomp=0.60 / qpmin=0 / qpmax=69 / qpstep=4 / vbv_maxrate=62500 / vbv_bufsize=78125 / nal_hrd=none / filler=0 / ip_ratio=1.40 / aq=1:1.00
    Default                     : Yes
    Forced                      : Yes
    Color range                 : Limited
    Color primaries             : BT.709
    Transfer characteristics    : BT.709
    Matrix coefficients         : BT.709

    Audio #1
    ID                          : 2
    Format                      : AC-3
    Format/Info                 : Audio Coding 3
    Commercial name             : Dolby Digital
    Codec ID                    : A_AC3
    Duration                    : 2 h 2 min
    Bit rate mode               : Constant
    Bit rate                    : 640 kb/s
    Channel(s)                  : 6 channels
    Channel layout              : L R C LFE Ls Rs
    Sampling rate               : 48.0 kHz
    Frame rate                  : 31.250 FPS (1536 SPF)
    Compression mode            : Lossy
    Delay relative to video     : -5 ms
    Stream size                 : 563 MiB (14%)
    Title                       : Español Latino AC3 [CinemaniaHDD]
    Language                    : Spanish
    Service kind                : Complete Main
    Default                     : Yes
    Forced                      : Yes

    Audio #2
    ID                          : 3
    Format                      : AC-3
    Format/Info                 : Audio Coding 3
    Commercial name             : Dolby Digital
    Codec ID                    : A_AC3
    Duration                    : 2 h 2 min
    Bit rate mode               : Constant
    Bit rate                    : 448 kb/s
    Channel(s)                  : 6 channels
    Channel layout              : L R C LFE Ls Rs
    Sampling rate               : 48.0 kHz
    Frame rate                  : 31.250 FPS (1536 SPF)
    Compression mode            : Lossy
    Delay relative to video     : -5 ms
    Stream size                 : 394 MiB (10%)
    Title                       : Ingles [CinemaniaHDD]
    Language                    : English
    Service kind                : Complete Main
    Default                     : No
    Forced                      : No

    Text #1
    ID                          : 4
    Format                      : UTF-8
    Codec ID                    : S_TEXT/UTF8
    Codec ID/Info               : UTF-8 Plain Text
    Duration                    : 1 h 50 min
    Bit rate                    : 0 b/s
    Count of elements           : 17
    Stream size                 : 409 Bytes (0%)
    Title                       : Forzados-SRT [CinemaniaHDD]
    Language                    : Spanish
    Default                     : Yes
    Forced                      : Yes

    Text #2
    ID                          : 5
    Format                      : UTF-8
    Codec ID                    : S_TEXT/UTF8
    Codec ID/Info               : UTF-8 Plain Text
    Duration                    : 1 h 54 min
    Bit rate                    : 66 b/s
    Count of elements           : 1978
    Stream size                 : 56.2 KiB (0%)
    Title                       : Español-SRT [CinemaniaHDD]
    Language                    : Spanish
    Default                     : No
    Forced                      : No

    Menu
    00:00:00.000                : Chapter 01
    00:03:18.031                : Chapter 02
    00:11:05.874                : Chapter 03
    00:15:29.720                : Chapter 04
    00:21:45.888                : Chapter 05
    00:24:43.107                : Chapter 06
    00:30:52.934                : Chapter 07
    00:37:36.754                : Chapter 08
    00:48:25.402                : Chapter 09
    00:53:02.471                : Chapter 10
    01:00:44.140                : Chapter 11
    01:05:18.873                : Chapter 12
    01:12:18.751                : Chapter 13
    01:17:20.302                : Chapter 14
    01:20:19.106                : Chapter 15
    01:23:58.992                : Chapter 16
    01:27:29.536                : Chapter 17
    01:33:32.398                : Chapter 18
    01:38:44.377                : Chapter 19
    01:51:06.118                : Chapter 20
    01:54:12.220                : Chapter 21

  • Peso: 3.96 GiB

Sinopsis

Descargar Mansión embrujada (2023) HD 1080p Latino. Inspirada en la clásica atracción del parque temático, Mansión Encantada (Haunted Mansion) cuenta la historia de una mujer y su hijo que reclutan a un variopinto grupo de expertos espirituales para que les ayuden a liberar su hogar de unos ocupantes sobrenaturales.

Ficha técnica

Video trailer de la película

Enlaces de descarga

Rip de Bluray

Descargar Mansión embrujada (2023) HD 1080p Latino




Aportes de DPeliculasHDmega la pass es:dpeliculashdmega.org Aportes de CinemaniaHD la pass es:cinemaniahdd.com Aportes recientes:cinemaniahdd.net
Guardado en : Comedy , Family , Fantasy , HD 1080p , Horror

Películas relacionadas

  • Amor, Mentiras y Sangre (2024) HD 1080p Latino

    Amor, Mentiras y Sangre (2024) HD 1080p Latino

    2024
    Amor, Mentiras y Sangre (2024) HD 1080p Latino

    1h 44m 2024

    Descargar Amor, Mentiras y Sangre (2024) HD 1080p Latino. Jackie está decidida a triunfar como culturista...

    Director: William Merritt Thomas

    Género: Crimen

    Actores: Tait Fletcher

  • Inmaculada (2024) HD 1080p Latino

    Inmaculada (2024) HD 1080p Latino

    2024
    Inmaculada (2024) HD 1080p Latino

    1h 29m 2024

    Descargar Inmaculada (2024) HD 1080p Latino. Cecilia, una mujer de fe devota, recibe una calurosa bienvenida...

    Director: Valentina Scuro

    Género: HD 1080p

    Actores: Viviane Florentine Nicolai

  • Spider-Man 3 (2007) REMUX 4K HDR Latino – CMHDD

    Spider-Man 3 (2007) REMUX 4K HDR Latino – CMHDD

    2007
    Spider-Man 3 (2007) REMUX 4K HDR Latino – CMHDD

    2h 19m 2007

    The seemingly invincible Spider-Man goes up against an all-new crop of villains—including the shape-shifting...

    Director: Trudy Ramirez

    Género: 4K HDR

    Actores: Willem Dafoe

  • Un Heroe Anonimo (2024) 1080p Latino-CMHDD

    Un Heroe Anonimo (2024) 1080p Latino-CMHDD

    2024
    Un Heroe Anonimo (2024) 1080p Latino-CMHDD

    1h 53m 2024

    Descargar Un Heroe Anonimo (2024) 1080p Latino-CMHDD. Basada en una extraordinaria historia real, la...

    Director: Richard Ramsey

    Género: Drama

    Actores: Vin Morreale Jr

  • Profesión peligro (2024) 1080p Latino-CMHDD

    Profesión peligro (2024) 1080p Latino-CMHDD

    2024
    Profesión peligro (2024) 1080p Latino-CMHDD

    2h 6m 2024

    Descargar Profesión peligro (2024) 1080p Latino-CMHDD. Es un doble de acción, y al igual que todos...

    Director: Paul Barry

    Género: Acción

    Actores: Zara Michales

descargar Mansión embrujada (2023) HD 1080p Latino 1080p 1080p gratis, Mansión embrujada (2023) HD 1080p Latino 1080p mega 1 link, Mansión embrujada (2023) HD 1080p Latino 1080p pelicula completa, descargar Mansión embrujada (2023) HD 1080p Latino 1080p gratis en mega.

Mansión embrujada (2023) HD 1080p Latino pelicula full hd, Mansión embrujada (2023) HD 1080p Latino mega latino, Mansión embrujada (2023) HD 1080p Latino 4k latino, Mansión embrujada (2023) HD 1080p Latino pelicula completa, Mansión embrujada (2023) HD 1080p Latino descargar gratis, descargar Mansión embrujada (2023) HD 1080p Latino pelicula latino, Mansión embrujada (2023) HD 1080p Latino 1 link mega, Mansión embrujada (2023) HD 1080p Latino 1 link google drive, Mansión embrujada (2023) HD 1080p Latino hd 1080p latino.
Comentarios 0