×

¿Problemas para descargar con Mozilla, EDGE? Deshabilita la opción "Abrir vinculos en una pestaña nueva" tal como lo muestra ésta imagen.

Pirates of the Caribbean The Curse of the Black Pearl (2003) REMUX 4K HDR Latino – CMHDD

242 vistas

Información de Pirates of the Caribbean The Curse of the Black Pearl (2003) REMUX 4K HDR Latino – CMHDD

Datos de la película

  • Calidad: 4K HDR
  • Audio: Se especifica abajo de la Sinopsis
  • Subtitulos: Español Latino PGS
  • Resolución: 3840x2160p
  • Formato:
  • Codec: H.264
  • Encoder: Dracarys
  • Mediainfo: Clic para Mostrar Datos Ver
  • Format                      : Matroska
    Format version              : Version 4
    File size                   : 51.2 GiB
    Duration                    : 2 h 23 min
    Overall bit rate mode       : Variable
    Overall bit rate            : 51.3 Mb/s
    Encoded date                : UTC 2022-05-08 19:35:11
    Writing application         : mkvmerge v17.0.0 ('Be Ur Friend') 64-bit
    Writing library             : libebml v1.3.5 + libmatroska v1.4.8

    Video
    ID                          : 1
    Format                      : HEVC
    Format/Info                 : High Efficiency Video Coding
    Format profile              : Main 10@L5.1@High
    HDR format                  : SMPTE ST 2086, HDR10 compatible
    Codec ID                    : V_MPEGH/ISO/HEVC
    Duration                    : 2 h 23 min
    Bit rate                    : 45.4 Mb/s
    Width                       : 3 840 pixels
    Height                      : 2 160 pixels
    Display aspect ratio        : 16:9
    Frame rate mode             : Constant
    Frame rate                  : 23.976 (24000/1001) FPS
    Color space                 : YUV
    Chroma subsampling          : 4:2:0 (Type 2)
    Bit depth                   : 10 bits
    Bits/(Pixel*Frame)          : 0.228
    Stream size                 : 45.4 GiB (89%)
    Default                     : Yes
    Forced                      : No
    Color range                 : Limited
    Color primaries             : BT.2020
    Transfer characteristics    : PQ
    Matrix coefficients         : BT.2020 non-constant
    Mastering display color pri : Display P3
    Mastering display luminance : min: 0.0050 cd/m2, max: 4000 cd/m2

    Audio #1
    ID                          : 2
    Format                      : MLP FBA 16-ch
    Format/Info                 : Meridian Lossless Packing FBA with 16-channel presentation
    Commercial name             : Dolby TrueHD with Dolby Atmos
    Codec ID                    : A_TRUEHD
    Duration                    : 2 h 23 min
    Bit rate mode               : Variable
    Bit rate                    : 4 115 kb/s
    Maximum bit rate            : 6 693 kb/s
    Channel(s)                  : 8 channels
    Channel layout              : L R C LFE Ls Rs Lb Rb
    Sampling rate               : 48.0 kHz
    Frame rate                  : 1 200.000 FPS (40 SPF)
    Compression mode            : Lossless
    Stream size                 : 4.11 GiB (8%)
    Language                    : English
    Default                     : No
    Forced                      : No
    Number of dynamic objects   : 13
    Bed channel count           : 1 channel
    Bed channel configuration   : LFE

    Audio #2
    ID                          : 3
    Format                      : AC-3
    Format/Info                 : Audio Coding 3
    Commercial name             : Dolby Digital
    Format settings             : Dolby Surround EX
    Codec ID                    : A_AC3
    Duration                    : 2 h 23 min
    Bit rate mode               : Constant
    Bit rate                    : 640 kb/s
    Channel(s)                  : 6 channels
    Channel layout              : L R C LFE Ls Rs
    Sampling rate               : 48.0 kHz
    Frame rate                  : 31.250 FPS (1536 SPF)
    Compression mode            : Lossy
    Stream size                 : 655 MiB (1%)
    Language                    : English
    Service kind                : Complete Main
    Default                     : No
    Forced                      : No

    Audio #3
    ID                          : 4
    Format                      : E-AC-3
    Format/Info                 : Enhanced AC-3
    Commercial name             : Dolby Digital Plus
    Format profile              : Blu-ray Disc
    Codec ID                    : A_EAC3
    Duration                    : 2 h 23 min
    Bit rate mode               : Constant
    Bit rate                    : 1 024 kb/s
    Channel(s)                  : 6 channels
    Channel(s)_Original         : 8 channels
    ChannelLayout_Original      : L R C LFE Ls Rs Lrs Rrs
    Sampling rate               : 48.0 kHz
    Frame rate                  : 31.250 FPS (1536 SPF)
    Compression mode            : Lossy
    Stream size                 : 1.02 GiB (2%)
    Language                    : Spanish
    Service kind                : Complete Main
    Default                     : Yes
    Forced                      : No

    Text #1
    ID                          : 5
    Format                      : PGS
    Muxing mode                 : zlib
    Codec ID                    : S_HDMV/PGS
    Codec ID/Info               : Picture based subtitle format used on BDs/HD-DVDs
    Duration                    : 2 h 14 min
    Bit rate                    : 31.7 kb/s
    Count of elements           : 3250
    Stream size                 : 30.5 MiB (0%)
    Language                    : Spanish
    Default                     : No
    Forced                      : No

    Text #2
    ID                          : 6
    Format                      : PGS
    Muxing mode                 : zlib
    Codec ID                    : S_HDMV/PGS
    Codec ID/Info               : Picture based subtitle format used on BDs/HD-DVDs
    Duration                    : 2 h 14 min
    Bit rate                    : 105 b/s
    Count of elements           : 10
    Stream size                 : 104 KiB (0%)
    Language                    : Spanish
    Default                     : No
    Forced                      : No

    Menu
    00:00:00.000                : en:Chapter 1
    00:08:51.239                : en:Chapter 2
    00:16:05.547                : en:Chapter 3
    00:27:16.343                : en:Chapter 4
    00:35:59.323                : en:Chapter 5
    00:41:02.960                : en:Chapter 6
    00:48:19.938                : en:Chapter 7
    00:54:01.279                : en:Chapter 8
    01:04:05.675                : en:Chapter 9
    01:15:56.802                : en:Chapter 10
    01:21:21.418                : en:Chapter 11
    01:35:00.236                : en:Chapter 12
    01:40:00.828                : en:Chapter 13
    01:48:15.614                : en:Chapter 14
    02:02:02.189                : en:Chapter 15
    02:13:09.648                : en:Chapter 16

  • Peso: 51.2 GiB

Sinopsis

Jack Sparrow, a freewheeling 18th-century pirate, quarrels with a rival pirate bent on pillaging Port Royal. When the governor’s daughter is kidnapped, Sparrow decides to help the girl’s love save her.

 

Latino: E-AC3 7.1  –  Inglés: True HD 7.1

Ficha técnica

Video trailer de la película

Enlaces de descarga

Rip de Bluray

Descargar Pirates of the Caribbean The Curse of the Black Pearl (2003) REMUX 4K HDR Latino – CMHDD


Aportes de DPeliculasHDmega la pass es:dpeliculashdmega.org Aportes de CinemaniaHD la pass es:cinemaniahdd.com
Guardado en : Action , Adventure , Fantasy

Películas relacionadas

  • Minions: Nace un villano (2022) HD 1080p Latino

    Minions: Nace un villano (2022) HD 1080p Latino

    2022
    Minions: Nace un villano (2022) HD 1080p Latino

    1h 27m 2022

    Descargar Minions: Nace un villano (2022) HD 1080p Latino. Mucho antes de convertirse en un genio del...

    Director: Kyle Balda

    Género: Adventure

    Actores: Will Collyer

  • Minions: Nace un villano (2022) REMUX 1080p Latino

    Minions: Nace un villano (2022) REMUX 1080p Latino

    2022
    Minions: Nace un villano (2022) REMUX 1080p Latino

    1h 27m 2022

    Descargar Minions: Nace un villano (2022) REMUX 1080p Latino. Mucho antes de convertirse en un genio...

    Director: Kyle Balda

    Género: Adventure

    Actores: Will Collyer

  • Jackass por Siempre (2022) Web-DL 1080p Latino

    Jackass por Siempre (2022) Web-DL 1080p Latino

    2022
    Jackass por Siempre (2022) Web-DL 1080p Latino

    1h 36m 2022

    Descargar Jackass por Siempre (2022) Web-DL 1080p Latino. El equipo de Jackass ha vuelto para su cruzada...

    Director: Jeff Tremaine

    Género: Action

    Actores: Zach Holmes

  • Spirit: El Indomable (2021) PLACEBO 1080p Latino

    Spirit: El Indomable (2021) PLACEBO 1080p Latino

    2021
    Spirit: El Indomable (2021) PLACEBO 1080p Latino

    1h 28m 2021

    Descargar Spirit: El Indomable (2021) PLACEBO 1080p Latino. La vida de Lucky Prescott cambia para siempre...

    Director: Ennio Torresan Jr.

    Género: Adventure

    Actores: Walton Goggins

  • Spider-Man 3 (2007) REMUX 4K HDR Latino – CMHDD

    Spider-Man 3 (2007) REMUX 4K HDR Latino – CMHDD

    2007
    Spider-Man 3 (2007) REMUX 4K HDR Latino – CMHDD

    2h 19m 2007

    The seemingly invincible Spider-Man goes up against an all-new crop of villains—including the shape-shifting...

    Director: Trudy Ramirez

    Género: 4K HDR

    Actores: Willem Dafoe

descargar Pirates of the Caribbean The Curse of the Black Pearl (2003) REMUX 4K HDR Latino – CMHDD 4K HDR 1080p gratis, Pirates of the Caribbean The Curse of the Black Pearl (2003) REMUX 4K HDR Latino – CMHDD 4K HDR mega 1 link, Pirates of the Caribbean The Curse of the Black Pearl (2003) REMUX 4K HDR Latino – CMHDD 4K HDR pelicula completa, descargar Pirates of the Caribbean The Curse of the Black Pearl (2003) REMUX 4K HDR Latino – CMHDD 4K HDR gratis en mega.

Pirates of the Caribbean The Curse of the Black Pearl (2003) REMUX 4K HDR Latino – CMHDD pelicula full hd, Pirates of the Caribbean The Curse of the Black Pearl (2003) REMUX 4K HDR Latino – CMHDD mega latino, Pirates of the Caribbean The Curse of the Black Pearl (2003) REMUX 4K HDR Latino – CMHDD 4k latino, Pirates of the Caribbean The Curse of the Black Pearl (2003) REMUX 4K HDR Latino – CMHDD pelicula completa, Pirates of the Caribbean The Curse of the Black Pearl (2003) REMUX 4K HDR Latino – CMHDD descargar gratis, descargar Pirates of the Caribbean The Curse of the Black Pearl (2003) REMUX 4K HDR Latino – CMHDD pelicula latino, Pirates of the Caribbean The Curse of the Black Pearl (2003) REMUX 4K HDR Latino – CMHDD 1 link mega, Pirates of the Caribbean The Curse of the Black Pearl (2003) REMUX 4K HDR Latino – CMHDD 1 link google drive, Pirates of the Caribbean The Curse of the Black Pearl (2003) REMUX 4K HDR Latino – CMHDD hd 1080p latino.
Comentarios 0