×

¿Problemas para descargar con Mozilla, EDGE? Deshabilita la opción "Abrir vinculos en una pestaña nueva" tal como lo muestra ésta imagen.

Blue Beetle (2023) Full HD 1080p Latino-CMHDD

227 vistas

Información de Blue Beetle (2023) Full HD 1080p Latino-CMHDD

Datos de la película

  • Calidad: Full 1080p
  • Audio: Español Latino AC3 5.1 BLURAY - Ingles AC3 5.1 BLURAY
  • Subtitulos: Español Latino PGS - Ingles PGS
  • Resolución: 1920x1080p
  • Formato: MKV
  • Codec: H.264
  • Encoder: CinefiloCool
  • Mediainfo: Clic para Mostrar Datos Ver
  • Blue.Beetle.2023.FullHD.1080p.Latino-CC@CMHDD.mkv
    Format                      : Matroska
    Format version              : Version 4
    File size                   : 5.54 GiB
    Duration                    : 2 h 7 min
    Overall bit rate            : 6 228 kb/s
    Movie name                  : Blue Beetle (2023) CinemaniaHDD.Net
    Encoded date                : UTC 2023-10-27 06:33:42
    Writing application         : mkvmerge v56.1.0 ('My Friend') 64-bit
    Writing library             : libebml v1.4.2 + libmatroska v1.6.4
    Attachments                 : CINEMANIAHD.png

    Video
    ID                          : 1
    Format                      : AVC
    Format/Info                 : Advanced Video Codec
    Format profile              : High@L4.1
    Format settings             : CABAC / 4 Ref Frames
    Format settings, CABAC      : Yes
    Format settings, Reference  : 4 frames
    Codec ID                    : V_MPEG4/ISO/AVC
    Duration                    : 2 h 7 min
    Bit rate                    : 5 110 kb/s
    Width                       : 1 920 pixels
    Height                      : 1 080 pixels
    Display aspect ratio        : 16:9
    Frame rate mode             : Constant
    Frame rate                  : 23.976 (24000/1001) FPS
    Color space                 : YUV
    Chroma subsampling          : 4:2:0
    Bit depth                   : 8 bits
    Scan type                   : Progressive
    Bits/(Pixel*Frame)          : 0.103
    Stream size                 : 4.55 GiB (82%)
    Title                       : Full HD1080p [CinemaniaHDD]
    Writing library             : x264 core 163 r3059 b684ebe0
    Encoding settings           : cabac=1 / ref=4 / deblock=1:0:0 / analyse=0x3:0x133 / me=tesa / subme=11 / psy=1 / psy_rd=1.00:0.00 / mixed_ref=1 / me_range=24 / chroma_me=1 / trellis=2 / 8x8dct=1 / cqm=0 / deadzone=21,11 / fast_pskip=0 / chroma_qp_offset=-2 / threads=24 / lookahead_threads=6 / sliced_threads=0 / nr=0 / decimate=1 / interlaced=0 / bluray_compat=0 / constrained_intra=0 / bframes=16 / b_pyramid=2 / b_adapt=2 / b_bias=0 / direct=3 / weightb=1 / open_gop=0 / weightp=2 / keyint=240 / keyint_min=24 / scenecut=40 / intra_refresh=0 / rc_lookahead=60 / rc=crf / mbtree=1 / crf=19.0 / qcomp=0.60 / qpmin=0 / qpmax=69 / qpstep=4 / vbv_maxrate=62500 / vbv_bufsize=78125 / crf_max=0.0 / nal_hrd=none / filler=0 / ip_ratio=1.40 / aq=1:1.00
    Default                     : Yes
    Forced                      : Yes
    Color range                 : Limited
    Color primaries             : BT.709
    Transfer characteristics    : BT.709
    Matrix coefficients         : BT.709

    Audio #1
    ID                          : 2
    Format                      : AC-3
    Format/Info                 : Audio Coding 3
    Commercial name             : Dolby Digital
    Codec ID                    : A_AC3
    Duration                    : 2 h 7 min
    Bit rate mode               : Constant
    Bit rate                    : 640 kb/s
    Channel(s)                  : 6 channels
    Channel layout              : L R C LFE Ls Rs
    Sampling rate               : 48.0 kHz
    Frame rate                  : 31.250 FPS (1536 SPF)
    Compression mode            : Lossy
    Stream size                 : 583 MiB (10%)
    Title                       : Español Latino [CinemaniaHDD]
    Language                    : Spanish
    Service kind                : Complete Main
    Default                     : Yes
    Forced                      : Yes

    Audio #2
    ID                          : 3
    Format                      : AC-3
    Format/Info                 : Audio Coding 3
    Commercial name             : Dolby Digital
    Codec ID                    : A_AC3
    Duration                    : 2 h 7 min
    Bit rate mode               : Constant
    Bit rate                    : 448 kb/s
    Channel(s)                  : 6 channels
    Channel layout              : L R C LFE Ls Rs
    Sampling rate               : 48.0 kHz
    Frame rate                  : 31.250 FPS (1536 SPF)
    Compression mode            : Lossy
    Stream size                 : 408 MiB (7%)
    Title                       : Ingles [CinemaniaHDD]
    Language                    : English
    Service kind                : Complete Main
    Default                     : No
    Forced                      : No

    Text #1
    ID                          : 4
    Format                      : PGS
    Muxing mode                 : zlib
    Codec ID                    : S_HDMV/PGS
    Codec ID/Info               : Picture based subtitle format used on BDs/HD-DVDs
    Duration                    : 1 h 51 min
    Bit rate                    : 918 b/s
    Count of elements           : 74
    Stream size                 : 753 KiB (0%)
    Title                       : Forzados-PGS [CinemaniaHDD]
    Language                    : Spanish
    Default                     : No
    Forced                      : No

    Text #2
    ID                          : 5
    Format                      : PGS
    Muxing mode                 : zlib
    Codec ID                    : S_HDMV/PGS
    Codec ID/Info               : Picture based subtitle format used on BDs/HD-DVDs
    Duration                    : 2 h 5 min
    Bit rate                    : 28.9 kb/s
    Count of elements           : 3262
    Stream size                 : 26.1 MiB (0%)
    Title                       : Español-PGS [CinemaniaHDD]
    Language                    : Spanish
    Default                     : No
    Forced                      : No

    Text #3
    ID                          : 6
    Format                      : PGS
    Muxing mode                 : zlib
    Codec ID                    : S_HDMV/PGS
    Codec ID/Info               : Picture based subtitle format used on BDs/HD-DVDs
    Duration                    : 2 h 6 min
    Bit rate                    : 43.6 kb/s
    Count of elements           : 4790
    Stream size                 : 39.4 MiB (1%)
    Title                       : Ingles-PGS [CinemaniaHDD]
    Language                    : English
    Default                     : No
    Forced                      : No

    Text #4
    ID                          : 7
    Format                      : UTF-8
    Codec ID                    : S_TEXT/UTF8
    Codec ID/Info               : UTF-8 Plain Text
    Duration                    : 1 h 57 min
    Bit rate                    : 1 b/s
    Count of elements           : 37
    Stream size                 : 1.08 KiB (0%)
    Title                       : Forzados-SRT [CinemaniaHDD]
    Language                    : Spanish
    Default                     : Yes
    Forced                      : Yes

    Text #5
    ID                          : 8
    Format                      : UTF-8
    Codec ID                    : S_TEXT/UTF8
    Codec ID/Info               : UTF-8 Plain Text
    Duration                    : 2 h 5 min
    Bit rate                    : 49 b/s
    Count of elements           : 1632
    Stream size                 : 45.3 KiB (0%)
    Title                       : Español-SRT [CinemaniaHDD]
    Language                    : Spanish
    Default                     : No
    Forced                      : No

    Menu
    00:00:00.000                : Chapter 01
    00:10:10.234                : Chapter 02
    00:20:13.128                : Chapter 03
    00:29:29.476                : Chapter 04
    00:41:33.282                : Chapter 05
    00:52:33.233                : Chapter 06
    01:01:37.235                : Chapter 07
    01:12:07.740                : Chapter 08
    01:20:02.214                : Chapter 09
    01:30:55.450                : Chapter 10
    01:41:06.268                : Chapter 11
    01:50:24.534                : Chapter 12
    01:59:29.871                : Chapter 13

  • Peso: 5.54 GiB

Sinopsis

Descargar Blue Beetle (2023) Full HD 1080p Latino-CMHDD. Jaime Reyes, recién licenciado, regresa a casa lleno de aspiraciones para su futuro, pero descubre que su hogar no es exactamente como lo dejó. En su búsqueda por encontrar su propósito en el mundo, el destino interviene cuando Jaime se encuentra inesperadamente en posesión de una antigua reliquia de biotecnología alienígena: el Escarabajo. Cuando el escarabajo elige a Jaime como huésped simbiótico, éste recibe una increíble armadura con poderes extraordinarios e impredecibles que cambiarán para siempre su destino y le convertirán en el superhéroe Blue Beetle.

Ficha técnica

Video trailer de la película

Enlaces de descarga

Rip de Bluray

Descargar Blue Beetle (2023) Full HD 1080p Latino-CMHDD




Aportes de DPeliculasHDmega la pass es:dpeliculashdmega.org Aportes de CinemaniaHD la pass es:cinemaniahdd.com Aportes recientes:cinemaniahdd.net

Películas relacionadas

  • En llamas (2023) PLACEBO Full HD 1080p Latino

    En llamas (2023) PLACEBO Full HD 1080p Latino

    2023
    En llamas (2023) PLACEBO Full HD 1080p Latino

    1h 17m 2023

    Descargar En llamas (2023) PLACEBO Full HD 1080p Latino. Una familia vive en una casa rodante en el bosque...

    Director: Peter Facinelli

    Género: Acción

    Actores: Ross McCall

  • Lazos De Vida (2023) PLACEBO Full HD 1080p Latino

    Lazos De Vida (2023) PLACEBO Full HD 1080p Latino

    2023
    Lazos De Vida (2023) PLACEBO Full HD 1080p Latino

    1h 50m 2023

    Descargar Lazos De Vida (2023) PLACEBO Full HD 1080p Latino. Un joven corredor de bolsa británico, Nicholas...

    Director: Nick Laurence

    Género: Bélica

    Actores: Ziggy Heath

  • Malicious (2023) PLACEBO Full HD 1080p Latino

    Malicious (2023) PLACEBO Full HD 1080p Latino

    2023
    Malicious (2023) PLACEBO Full HD 1080p Latino

    1h 31m 2023

    Descargar Malicious (2023) PLACEBO Full HD 1080p Latino. El gobernador William McCabe, su mujer y su...

    Director: John Fallon

    Género: Crimen

    Actores: Nick Baillie

descargar Blue Beetle (2023) Full HD 1080p Latino-CMHDD Full 1080p 1080p gratis, Blue Beetle (2023) Full HD 1080p Latino-CMHDD Full 1080p mega 1 link, Blue Beetle (2023) Full HD 1080p Latino-CMHDD Full 1080p pelicula completa, descargar Blue Beetle (2023) Full HD 1080p Latino-CMHDD Full 1080p gratis en mega.

Blue Beetle (2023) Full HD 1080p Latino-CMHDD pelicula full hd, Blue Beetle (2023) Full HD 1080p Latino-CMHDD mega latino, Blue Beetle (2023) Full HD 1080p Latino-CMHDD 4k latino, Blue Beetle (2023) Full HD 1080p Latino-CMHDD pelicula completa, Blue Beetle (2023) Full HD 1080p Latino-CMHDD descargar gratis, descargar Blue Beetle (2023) Full HD 1080p Latino-CMHDD pelicula latino, Blue Beetle (2023) Full HD 1080p Latino-CMHDD 1 link mega, Blue Beetle (2023) Full HD 1080p Latino-CMHDD 1 link google drive, Blue Beetle (2023) Full HD 1080p Latino-CMHDD hd 1080p latino.
Comentarios 0