×

¿Problemas para descargar con Mozilla, EDGE? Deshabilita la opción "Abrir vinculos en una pestaña nueva" tal como lo muestra ésta imagen.

Los Indestructibles 4 (2023) Full HD 1080p Latino-CMHDD

321 vistas

Información de Los Indestructibles 4 (2023) Full HD 1080p Latino-CMHDD

Datos de la película

  • Calidad: Full 1080p
  • Audio: Se especifica abajo de la Sinopsis
  • Subtitulos: Español Latino PGS - Ingles PGS
  • Resolución: 1920x1080p
  • Formato: MKV
  • Codec: H.264
  • Encoder: CinefiloCool
  • Mediainfo: Clic para Mostrar Datos Ver
  • Expend4bles.2023.Bluray.FullHD.1080p.x264.Latino-CC@CMHDD.mkv
    Format                      : Matroska
    Format version              : Version 4
    File size                   : 7.29 GiB
    Duration                    : 1 h 43 min
    Overall bit rate            : 10.1 Mb/s
    Movie name                  : Expend4bles (2023) CinemaniaHDD.Net
    Encoded date                : UTC 2023-11-16 17:22:51
    Writing application         : mkvmerge v56.1.0 ('My Friend') 64-bit
    Writing library             : libebml v1.4.2 + libmatroska v1.6.4
    Cover                       : Yes
    Attachments                 : cover.jpg / CINEMANIAHD.png

    Video
    ID                          : 1
    Format                      : AVC
    Format/Info                 : Advanced Video Codec
    Format profile              : High@L4.1
    Format settings             : CABAC / 4 Ref Frames
    Format settings, CABAC      : Yes
    Format settings, Reference  : 4 frames
    Codec ID                    : V_MPEG4/ISO/AVC
    Duration                    : 1 h 43 min
    Bit rate                    : 7 253 kb/s
    Width                       : 1 920 pixels
    Height                      : 1 080 pixels
    Display aspect ratio        : 16:9
    Frame rate mode             : Constant
    Frame rate                  : 23.976 (24000/1001) FPS
    Color space                 : YUV
    Chroma subsampling          : 4:2:0
    Bit depth                   : 8 bits
    Scan type                   : Progressive
    Bits/(Pixel*Frame)          : 0.146
    Stream size                 : 5.25 GiB (72%)
    Title                       : Full HD1080p [CinemaniaHDD]
    Writing library             : x264 core 163 r3059 b684ebe0
    Encoding settings           : cabac=1 / ref=4 / deblock=1:0:0 / analyse=0x3:0x133 / me=tesa / subme=11 / psy=1 / psy_rd=1.00:0.00 / mixed_ref=1 / me_range=24 / chroma_me=1 / trellis=2 / 8x8dct=1 / cqm=0 / deadzone=21,11 / fast_pskip=0 / chroma_qp_offset=-2 / threads=24 / lookahead_threads=6 / sliced_threads=0 / nr=0 / decimate=1 / interlaced=0 / bluray_compat=0 / constrained_intra=0 / bframes=16 / b_pyramid=2 / b_adapt=2 / b_bias=0 / direct=3 / weightb=1 / open_gop=0 / weightp=2 / keyint=240 / keyint_min=24 / scenecut=40 / intra_refresh=0 / rc_lookahead=60 / rc=crf / mbtree=1 / crf=19.0 / qcomp=0.60 / qpmin=0 / qpmax=69 / qpstep=4 / vbv_maxrate=62500 / vbv_bufsize=78125 / crf_max=0.0 / nal_hrd=none / filler=0 / ip_ratio=1.40 / aq=1:1.00
    Default                     : Yes
    Forced                      : Yes
    Color range                 : Limited
    Color primaries             : BT.709
    Transfer characteristics    : BT.709
    Matrix coefficients         : BT.709

    Audio #1
    ID                          : 2
    ID in the original source m : 4355 (0x1103)
    Format                      : AC-3
    Format/Info                 : Audio Coding 3
    Commercial name             : Dolby Digital
    Codec ID                    : A_AC3
    Duration                    : 1 h 43 min
    Bit rate mode               : Constant
    Bit rate                    : 640 kb/s
    Channel(s)                  : 6 channels
    Channel layout              : L R C LFE Ls Rs
    Sampling rate               : 48.0 kHz
    Frame rate                  : 31.250 FPS (1536 SPF)
    Compression mode            : Lossy
    Stream size                 : 474 MiB (6%)
    Title                       : Español Latino AC3 [CinemaniaHDD]
    Language                    : Spanish
    Service kind                : Complete Main
    Default                     : Yes
    Forced                      : Yes
    Original source medium      : Blu-ray

    Audio #2
    ID                          : 3
    Format                      : E-AC-3
    Format/Info                 : Enhanced AC-3
    Commercial name             : Dolby Digital Plus
    Codec ID                    : A_EAC3
    Duration                    : 1 h 43 min
    Bit rate mode               : Constant
    Bit rate                    : 640 kb/s
    Channel(s)                  : 6 channels
    Channel layout              : L R C LFE Ls Rs
    Sampling rate               : 48.0 kHz
    Frame rate                  : 31.250 FPS (1536 SPF)
    Compression mode            : Lossy
    Stream size                 : 474 MiB (6%)
    Title                       : Español Latino DDP [CinemaniaHDD]
    Language                    : Spanish
    Service kind                : Complete Main
    Default                     : No
    Forced                      : No

    Audio #3
    ID                          : 4
    Format                      : DTS
    Format/Info                 : Digital Theater Systems
    Codec ID                    : A_DTS
    Duration                    : 1 h 43 min
    Bit rate mode               : Constant
    Bit rate                    : 1 509 kb/s
    Channel(s)                  : 6 channels
    Channel layout              : C L R Ls Rs LFE
    Sampling rate               : 48.0 kHz
    Frame rate                  : 93.750 FPS (512 SPF)
    Bit depth                   : 16 bits
    Compression mode            : Lossy
    Stream size                 : 1.09 GiB (15%)
    Title                       : Ingles [CinemaniaHDD]
    Language                    : English
    Default                     : No
    Forced                      : No

    Text #1
    ID                          : 5
    Format                      : PGS
    Muxing mode                 : zlib
    Codec ID                    : S_HDMV/PGS
    Codec ID/Info               : Picture based subtitle format used on BDs/HD-DVDs
    Duration                    : 1 h 42 min
    Bit rate                    : 472 b/s
    Count of elements           : 42
    Stream size                 : 354 KiB (0%)
    Title                       : Forzados-PGS [CinemaniaHDD]
    Language                    : Spanish
    Default                     : No
    Forced                      : No

    Text #2
    ID                          : 6
    ID in the original source m : 4609 (0x1201)
    Format                      : PGS
    Muxing mode                 : zlib
    Codec ID                    : S_HDMV/PGS
    Codec ID/Info               : Picture based subtitle format used on BDs/HD-DVDs
    Duration                    : 1 h 42 min
    Bit rate                    : 27.0 kb/s
    Count of elements           : 2102
    Stream size                 : 19.8 MiB (0%)
    Title                       : Español-PGS [CinemaniaHDD]
    Language                    : Spanish
    Default                     : No
    Forced                      : No
    Original source medium      : Blu-ray

    Text #3
    ID                          : 7
    ID in the original source m : 4608 (0x1200)
    Format                      : PGS
    Muxing mode                 : zlib
    Codec ID                    : S_HDMV/PGS
    Codec ID/Info               : Picture based subtitle format used on BDs/HD-DVDs
    Duration                    : 1 h 42 min
    Bit rate                    : 32.6 kb/s
    Count of elements           : 2644
    Stream size                 : 24.0 MiB (0%)
    Title                       : Ingles-PGS [CinemaniaHDD]
    Language                    : English
    Default                     : No
    Forced                      : No
    Original source medium      : Blu-ray

    Text #4
    ID                          : 8
    Format                      : UTF-8
    Codec ID                    : S_TEXT/UTF8
    Codec ID/Info               : UTF-8 Plain Text
    Duration                    : 1 h 24 min
    Bit rate                    : 0 b/s
    Count of elements           : 7
    Stream size                 : 144 Bytes (0%)
    Title                       : Forzados-SRT [CinemaniaHDD]
    Language                    : Spanish
    Default                     : Yes
    Forced                      : Yes

    Text #5
    ID                          : 9
    Format                      : UTF-8
    Codec ID                    : S_TEXT/UTF8
    Codec ID/Info               : UTF-8 Plain Text
    Duration                    : 1 h 34 min
    Bit rate                    : 53 b/s
    Count of elements           : 1116
    Stream size                 : 36.8 KiB (0%)
    Title                       : Español-SRT [CinemaniaHDD]
    Language                    : Spanish
    Default                     : No
    Forced                      : No

    Menu
    00:00:00.000                : Chapter 01
    00:06:06.574                : Chapter 02
    00:06:07.450                : Chapter 03
    00:10:57.698                : Chapter 04
    00:10:57.990                : Chapter 05
    00:15:56.622                : Chapter 06
    00:15:57.498                : Chapter 07
    00:23:44.381                : Chapter 08
    00:23:44.798                : Chapter 09
    00:28:35.672                : Chapter 10
    00:28:36.548                : Chapter 11
    00:34:39.952                : Chapter 12
    00:34:40.203                : Chapter 13
    00:40:43.482                : Chapter 14
    00:40:43.858                : Chapter 15
    00:46:44.676                : Chapter 16
    00:46:45.093                : Chapter 17
    00:50:27.190                : Chapter 18
    00:50:28.066                : Chapter 19
    00:56:32.931                : Chapter 20
    00:56:33.139                : Chapter 21
    01:00:41.679                : Chapter 22
    01:00:42.555                : Chapter 23
    01:07:44.727                : Chapter 24
    01:07:45.603                : Chapter 25
    01:15:15.594                : Chapter 26
    01:15:16.053                : Chapter 27
    01:23:17.283                : Chapter 28
    01:23:17.325                : Chapter 29
    01:30:56.868                : Chapter 30
    01:30:57.076                : Chapter 31

  • Peso: 7.29 GiB

Sinopsis

Descargar Los Indestructibles 4 (2023) Full HD 1080p Latino-CMHDD. Cuarta entrega de la saga Los Mercenarios. El veterano mercenario Barney “Esquizo” Ross (Sylvester Stallone) y su equipo de estrellas, formado por los hombres más duros (Jason Statham, Dolph Lundgren, 50 Cent, Megan Fox…), afrontan un nuevo desafío, en una trama cargada de acción. Para superarlo y salir airosos, deberán recurrir a su ingenio, experiencia y a la fuerza bruta que los caracteriza.

Español Latino EAC3 5.1 Web + AC3 5.1 Bluray – Ingles DTS 5.1 Bluray

Ficha técnica

Video trailer de la película

Enlaces de descarga

Rip de Bluray

Descargar Los Indestructibles 4 (2023) Full HD 1080p Latino-CMHDD




Aportes de DPeliculasHDmega la pass es:dpeliculashdmega.org Aportes de CinemaniaHD la pass es:cinemaniahdd.com Aportes recientes:cinemaniahdd.net

Películas relacionadas

descargar Los Indestructibles 4 (2023) Full HD 1080p Latino-CMHDD Full 1080p 1080p gratis, Los Indestructibles 4 (2023) Full HD 1080p Latino-CMHDD Full 1080p mega 1 link, Los Indestructibles 4 (2023) Full HD 1080p Latino-CMHDD Full 1080p pelicula completa, descargar Los Indestructibles 4 (2023) Full HD 1080p Latino-CMHDD Full 1080p gratis en mega.

Los Indestructibles 4 (2023) Full HD 1080p Latino-CMHDD pelicula full hd, Los Indestructibles 4 (2023) Full HD 1080p Latino-CMHDD mega latino, Los Indestructibles 4 (2023) Full HD 1080p Latino-CMHDD 4k latino, Los Indestructibles 4 (2023) Full HD 1080p Latino-CMHDD pelicula completa, Los Indestructibles 4 (2023) Full HD 1080p Latino-CMHDD descargar gratis, descargar Los Indestructibles 4 (2023) Full HD 1080p Latino-CMHDD pelicula latino, Los Indestructibles 4 (2023) Full HD 1080p Latino-CMHDD 1 link mega, Los Indestructibles 4 (2023) Full HD 1080p Latino-CMHDD 1 link google drive, Los Indestructibles 4 (2023) Full HD 1080p Latino-CMHDD hd 1080p latino.
Comentarios 1
  • Roy - 18 noviembre, 2023

    Solo quiero decir, muchas gracias. Gracias, por poner los dos doblajes español latino.