×

¿Problemas para descargar con Mozilla, EDGE? Deshabilita la opción "Abrir vinculos en una pestaña nueva" tal como lo muestra ésta imagen.

Ultra Galaxy Fight: New Generation Heroes (2019) WEB-DL 1080p Latino – CMHDD

195 vistas

Información de Ultra Galaxy Fight: New Generation Heroes (2019) WEB-DL 1080p Latino – CMHDD

Datos de la película

  • Calidad: WEBDL
  • Audio: Español Latino AC3 2.0
  • Subtitulos: Español Latino SRT
  • Resolución: 1920x1080p
  • Formato: MKV
  • Codec: H.264
  • Encoder: CinemaniaHDD
  • Mediainfo: Clic para Mostrar Datos Ver
  • Format                      : Matroska
    Format version              : Version 4
    File size                   : 2.18 GiB
    Duration                    : 58 min 32 s
    Overall bit rate            : 5 319 kb/s
    Movie name                  : Ultra Galaxy Fight: New Generation Heroes (2019) WEB-DL 1080p Latino - CMHDD
    Encoded date                : UTC 2021-05-06 00:08:52
    Writing application         : mkvmerge v56.1.0 ('My Friend') 64-bit
    Writing library             : libebml v1.4.2 + libmatroska v1.6.4

    Video
    ID                          : 1
    Format                      : AVC
    Format/Info                 : Advanced Video Codec
    Format profile              : High@L4
    Format settings             : CABAC / 4 Ref Frames
    Format settings, CABAC      : Yes
    Format settings, Reference  : 4 frames
    Codec ID                    : V_MPEG4/ISO/AVC
    Duration                    : 58 min 32 s
    Bit rate                    : 5 063 kb/s
    Width                       : 1 920 pixels
    Height                      : 1 080 pixels
    Display aspect ratio        : 16:9
    Frame rate mode             : Constant
    Frame rate                  : 23.976 FPS
    Color space                 : YUV
    Chroma subsampling          : 4:2:0
    Bit depth                   : 8 bits
    Scan type                   : Progressive
    Bits/(Pixel*Frame)          : 0.102
    Stream size                 : 2.07 GiB (95%)
    Language                    : English
    Default                     : Yes
    Forced                      : No
    Color range                 : Limited
    Color primaries             : BT.709
    Transfer characteristics    : BT.709
    Matrix coefficients         : BT.709

    Audio #1
    ID                          : 2
    Format                      : AAC LC
    Format/Info                 : Advanced Audio Codec Low Complexity
    Codec ID                    : A_AAC-2
    Duration                    : 58 min 32 s
    Bit rate                    : 126 kb/s
    Channel(s)                  : 2 channels
    Channel layout              : L R
    Sampling rate               : 48.0 kHz
    Frame rate                  : 46.875 FPS (1024 SPF)
    Compression mode            : Lossy
    Delay relative to video     : -42 ms
    Stream size                 : 52.8 MiB (2%)
    Language                    : Spanish
    Default                     : Yes
    Forced                      : No

    Audio #2
    ID                          : 3
    Format                      : AAC LC
    Format/Info                 : Advanced Audio Codec Low Complexity
    Codec ID                    : A_AAC-2
    Duration                    : 58 min 32 s
    Bit rate                    : 126 kb/s
    Channel(s)                  : 2 channels
    Channel layout              : L R
    Sampling rate               : 48.0 kHz
    Frame rate                  : 46.875 FPS (1024 SPF)
    Compression mode            : Lossy
    Delay relative to video     : -42 ms
    Stream size                 : 52.9 MiB (2%)
    Language                    : Japanese
    Default                     : No
    Forced                      : No

    Text
    ID                          : 4
    Format                      : UTF-8
    Codec ID                    : S_TEXT/UTF8
    Codec ID/Info               : UTF-8 Plain Text
    Duration                    : 57 min 36 s
    Bit rate                    : 39 b/s
    Count of elements           : 586
    Stream size                 : 16.5 KiB (0%)
    Language                    : Spanish
    Default                     : Yes
    Forced                      : No

    Menu
    00:00:00.000                : 1
    00:09:48.671                : 2
    00:21:26.242                : 3
    00:32:29.654                : 4
    00:52:28.476                : 5
    00:56:31.802                : 6

  • Peso: 2.18 GiB

Sinopsis

Los Ultras de Nueva Generación se unen para luchar contra la Liga de la Oscuridad, una organización malvada liderada por Ultra Dark-Killer, compuesta por una selección de enemigos previamente combatidos por los Ultras, junto con clones malignos de Ultras existentes, incluyendo los Ultramen Oscuros; X Oscuridad, Geed Oscuridad, Orb Oscuridad y Zero Oscuridad..

 

Latino: AAC 2.0  –  Japones: AAC 2.0

Ficha técnica

Video trailer de la película

Enlaces de descarga

Rip de Bluray

Descargar Ultra Galaxy Fight: New Generation Heroes (2019) WEB-DL 1080p Latino – CMHDD




Aportes de DPeliculasHDmega la pass es:dpeliculashdmega.org Aportes de CinemaniaHD la pass es:cinemaniahdd.com

Películas relacionadas

descargar Ultra Galaxy Fight: New Generation Heroes (2019) WEB-DL 1080p Latino – CMHDD WEBDL 1080p gratis, Ultra Galaxy Fight: New Generation Heroes (2019) WEB-DL 1080p Latino – CMHDD WEBDL mega 1 link, Ultra Galaxy Fight: New Generation Heroes (2019) WEB-DL 1080p Latino – CMHDD WEBDL pelicula completa, descargar Ultra Galaxy Fight: New Generation Heroes (2019) WEB-DL 1080p Latino – CMHDD WEBDL gratis en mega.

Ultra Galaxy Fight: New Generation Heroes (2019) WEB-DL 1080p Latino – CMHDD pelicula full hd, Ultra Galaxy Fight: New Generation Heroes (2019) WEB-DL 1080p Latino – CMHDD mega latino, Ultra Galaxy Fight: New Generation Heroes (2019) WEB-DL 1080p Latino – CMHDD 4k latino, Ultra Galaxy Fight: New Generation Heroes (2019) WEB-DL 1080p Latino – CMHDD pelicula completa, Ultra Galaxy Fight: New Generation Heroes (2019) WEB-DL 1080p Latino – CMHDD descargar gratis, descargar Ultra Galaxy Fight: New Generation Heroes (2019) WEB-DL 1080p Latino – CMHDD pelicula latino, Ultra Galaxy Fight: New Generation Heroes (2019) WEB-DL 1080p Latino – CMHDD 1 link mega, Ultra Galaxy Fight: New Generation Heroes (2019) WEB-DL 1080p Latino – CMHDD 1 link google drive, Ultra Galaxy Fight: New Generation Heroes (2019) WEB-DL 1080p Latino – CMHDD hd 1080p latino.
Comentarios 0