×

¿Problemas para descargar con Mozilla, EDGE? Deshabilita la opción "Abrir vinculos en una pestaña nueva" tal como lo muestra ésta imagen.

Monarch: Legacy of Monsters (2023) Temporada 1 ATVP WEB-DL 1080p Latino

126 vistas

Información de Monarch: Legacy of Monsters (2023) Temporada 1 ATVP WEB-DL 1080p Latino

Datos de la película

  • Calidad: WEBDL
  • Audio: Se especifica abajo de la Sinopsis
  • Subtitulos: Español Latino SRT- FORZADOS SRT
  • Resolución: 1920x1080p
  • Formato: MKV
  • Codec: H.264
  • Encoder: Melkor
  • Mediainfo: Clic para Mostrar Datos Ver
  • Monarch Legacy of Monsters S01E01 (2023) WEB 1080p Latino.mkv
    Format                      : Matroska
    Format version              : Version 4
    File size                   : 4.02 GiB
    Duration                    : 49 min 48 s
    Overall bit rate            : 11.5 Mb/s
    Movie name                  : Monarch Legacy of Monsters S01E01 - Aftermath  CinemaniaHDD.Net
    Encoded date                : UTC 2024-01-14 03:53:08
    Writing application         : mkvmerge v56.1.0 ('My Friend') 64-bit
    Writing library             : libebml v1.4.2 + libmatroska v1.6.4
    Attachments                 : CINEMANIAHD.png
    Site                        : CinemaniaHDD.Net
    Uploader                    : Melkor

    Video
    ID                          : 1
    Format                      : AVC
    Format/Info                 : Advanced Video Codec
    Format profile              : High@L4
    Format settings             : CABAC / 4 Ref Frames
    Format settings, CABAC      : Yes
    Format settings, Reference  : 4 frames
    Codec ID                    : V_MPEG4/ISO/AVC
    Duration                    : 49 min 48 s
    Bit rate                    : 10.0 Mb/s
    Width                       : 1 920 pixels
    Height                      : 1 080 pixels
    Display aspect ratio        : 16:9
    Frame rate mode             : Constant
    Frame rate                  : 23.976 (24000/1001) FPS
    Color space                 : YUV
    Chroma subsampling          : 4:2:0
    Bit depth                   : 8 bits
    Scan type                   : Progressive
    Bits/(Pixel*Frame)          : 0.201
    Stream size                 : 3.48 GiB (87%)
    Title                       : WEB HD1080p [CinemaniaHDD]
    Language                    : English
    Default                     : Yes
    Forced                      : No
    Color range                 : Limited
    Color primaries             : BT.709
    Transfer characteristics    : BT.709
    Matrix coefficients         : BT.709

    Audio #1
    ID                          : 2
    Format                      : E-AC-3 JOC
    Format/Info                 : Enhanced AC-3 with Joint Object Coding
    Commercial name             : Dolby Digital Plus with Dolby Atmos
    Codec ID                    : A_EAC3
    Duration                    : 49 min 48 s
    Bit rate mode               : Constant
    Bit rate                    : 768 kb/s
    Channel(s)                  : 6 channels
    Channel layout              : L R C LFE Ls Rs
    Sampling rate               : 48.0 kHz
    Frame rate                  : 31.250 FPS (1536 SPF)
    Compression mode            : Lossy
    Stream size                 : 274 MiB (7%)
    Title                       : Español Latino [CinemaniaHDD]
    Language                    : Spanish
    Service kind                : Complete Main
    Default                     : Yes
    Forced                      : No
    Complexity index            : 16
    Number of dynamic objects   : 15
    Bed channel count           : 1 channel
    Bed channel configuration   : LFE

    Audio #2
    ID                          : 3
    Format                      : E-AC-3 JOC
    Format/Info                 : Enhanced AC-3 with Joint Object Coding
    Commercial name             : Dolby Digital Plus with Dolby Atmos
    Codec ID                    : A_EAC3
    Duration                    : 49 min 48 s
    Bit rate mode               : Constant
    Bit rate                    : 768 kb/s
    Channel(s)                  : 6 channels
    Channel layout              : L R C LFE Ls Rs
    Sampling rate               : 48.0 kHz
    Frame rate                  : 31.250 FPS (1536 SPF)
    Compression mode            : Lossy
    Stream size                 : 274 MiB (7%)
    Title                       : Ingles [CinemaniaHDD]
    Language                    : English
    Service kind                : Complete Main
    Default                     : No
    Forced                      : No
    Complexity index            : 16
    Number of dynamic objects   : 15
    Bed channel count           : 1 channel
    Bed channel configuration   : LFE

    Text #1
    ID                          : 4
    Format                      : UTF-8
    Codec ID                    : S_TEXT/UTF8
    Codec ID/Info               : UTF-8 Plain Text
    Duration                    : 43 min 56 s
    Bit rate                    : 7 b/s
    Count of elements           : 83
    Stream size                 : 2.57 KiB (0%)
    Title                       : Forzados-SRT [CinemaniaHDD]
    Language                    : Spanish
    Default                     : Yes
    Forced                      : No

    Text #2
    ID                          : 5
    Format                      : UTF-8
    Codec ID                    : S_TEXT/UTF8
    Codec ID/Info               : UTF-8 Plain Text
    Duration                    : 49 min 13 s
    Bit rate                    : 58 b/s
    Count of elements           : 543
    Stream size                 : 21.2 KiB (0%)
    Title                       : Español-SRT [CinemaniaHDD]
    Language                    : Spanish
    Default                     : No
    Forced                      : No

    Text #3
    ID                          : 6
    Format                      : UTF-8
    Codec ID                    : S_TEXT/UTF8
    Codec ID/Info               : UTF-8 Plain Text
    Duration                    : 47 min 41 s
    Bit rate                    : 48 b/s
    Count of elements           : 544
    Stream size                 : 17.1 KiB (0%)
    Title                       : Ingles-SRT [CinemaniaHDD]
    Language                    : English
    Default                     : No
    Forced                      : No

  • Peso: 3.8 GiB -- 37.1 GiB -- 10 Chapters

Sinopsis

Descargar Monarch: Legacy of Monsters (2023) Temporada 1 ATVP WEB-DL 1080p Latino. Después de haber sobrevivido al ataque de Godzilla en San Francisco, Cate se asombra de nuevo por un secreto impactante. Entre amenazas gigantescas, ella se embarca a una aventura por todo el mundo para saber la verdad sobre su familia y la misteriosa organización conocida como Monarch.

Español – Ingles [EAC3 JOC 5.1]

Ficha técnica

Video trailer de la película

Enlaces de descarga

Rip de Bluray

Descargar Monarch: Legacy of Monsters (2023) Temporada 1 ATVP WEB-DL 1080p Latino




Aportes de DPeliculasHDmega la pass es:dpeliculashdmega.org Aportes de CinemaniaHD la pass es:cinemaniahdd.com Aportes recientes:cinemaniahdd.net

Películas relacionadas

descargar Monarch: Legacy of Monsters (2023) Temporada 1 ATVP WEB-DL 1080p Latino WEBDL 1080p gratis, Monarch: Legacy of Monsters (2023) Temporada 1 ATVP WEB-DL 1080p Latino WEBDL mega 1 link, Monarch: Legacy of Monsters (2023) Temporada 1 ATVP WEB-DL 1080p Latino WEBDL serie completa, descargar Monarch: Legacy of Monsters (2023) Temporada 1 ATVP WEB-DL 1080p Latino WEBDL gratis en mega.

Monarch: Legacy of Monsters (2023) Temporada 1 ATVP WEB-DL 1080p Latino pelicula full hd, Monarch: Legacy of Monsters (2023) Temporada 1 ATVP WEB-DL 1080p Latino mega latino, Monarch: Legacy of Monsters (2023) Temporada 1 ATVP WEB-DL 1080p Latino 4k latino, Monarch: Legacy of Monsters (2023) Temporada 1 ATVP WEB-DL 1080p Latino pelicula completa, Monarch: Legacy of Monsters (2023) Temporada 1 ATVP WEB-DL 1080p Latino descargar gratis, descargar Monarch: Legacy of Monsters (2023) Temporada 1 ATVP WEB-DL 1080p Latino pelicula latino, Monarch: Legacy of Monsters (2023) Temporada 1 ATVP WEB-DL 1080p Latino 1 link mega, Monarch: Legacy of Monsters (2023) Temporada 1 ATVP WEB-DL 1080p Latino 1 link google drive, Monarch: Legacy of Monsters (2023) Temporada 1 ATVP WEB-DL 1080p Latino hd 1080p latino.
Comentarios 0