×

¿Problemas para descargar con Mozilla, EDGE? Deshabilita la opción "Abrir vinculos en una pestaña nueva" tal como lo muestra ésta imagen.

Percy Jackson y los dioses del Olimpo (2023) Temporada 1 WEB-DL 4K UHD HDR Latino

121 vistas

Información de Percy Jackson y los dioses del Olimpo (2023) Temporada 1 WEB-DL 4K UHD HDR Latino

Datos de la película

  • Calidad: WEBDL
  • Audio: Se especifica abajo de la Sinopsis
  • Subtitulos: Español Latino SRT- FORZADOS SRT
  • Resolución: 3840x2160p
  • Formato: MKV
  • Codec: HEVC
  • Encoder: Melkor
  • Mediainfo: Clic para Mostrar Datos Ver
  • Percy Jackson and the Olympians S01E01 (2023) WEB UHD HDR Latino.mkv
    Format                      : Matroska
    Format version              : Version 4
    File size                   : 3.64 GiB
    Duration                    : 37 min 21 s
    Overall bit rate            : 13.9 Mb/s
    Movie name                  : CinemaniaHDD.Net
    Encoded date                : UTC 2023-12-20 05:12:18
    Writing application         : mkvmerge v56.1.0 ('My Friend') 64-bit
    Writing library             : libebml v1.4.2 + libmatroska v1.6.4
    Attachments                 : CINEMANIAHD.png
    Site                        : CinemaniaHDD.Net
    Uploader                    : Melkor

    Video
    ID                          : 1
    Format                      : HEVC
    Format/Info                 : High Efficiency Video Coding
    Format profile              : Main 10@L5@High
    HDR format                  : Dolby Vision, Version 1.0, dvhe.08.06, BL+RPU, HDR10 compatible / SMPTE ST 2086, HDR10 compatible
    Codec ID                    : V_MPEGH/ISO/HEVC
    Duration                    : 37 min 21 s
    Bit rate                    : 12.9 Mb/s
    Width                       : 3 840 pixels
    Height                      : 2 160 pixels
    Display aspect ratio        : 16:9
    Frame rate mode             : Constant
    Frame rate                  : 24.000 FPS
    Color space                 : YUV
    Chroma subsampling          : 4:2:0
    Bit depth                   : 10 bits
    Bits/(Pixel*Frame)          : 0.065
    Stream size                 : 3.37 GiB (93%)
    Title                       : Web 2160p HDR [CinemaniaHDD]
    Language                    : English
    Default                     : Yes
    Forced                      : No
    Color range                 : Limited
    Color primaries             : BT.2020
    Transfer characteristics    : PQ
    Matrix coefficients         : BT.2020 non-constant
    Mastering display color pri : BT.2020
    Mastering display luminance : min: 0.0010 cd/m2, max: 1000 cd/m2

    Audio #1
    ID                          : 2
    Format                      : E-AC-3
    Format/Info                 : Enhanced AC-3
    Commercial name             : Dolby Digital Plus
    Codec ID                    : A_EAC3
    Duration                    : 37 min 21 s
    Bit rate mode               : Constant
    Bit rate                    : 256 kb/s
    Channel(s)                  : 6 channels
    Channel layout              : L R C LFE Ls Rs
    Sampling rate               : 48.0 kHz
    Frame rate                  : 31.250 FPS (1536 SPF)
    Compression mode            : Lossy
    Stream size                 : 68.4 MiB (2%)
    Title                       : Español Latino [CinemaniaHDD]
    Language                    : Spanish
    Service kind                : Complete Main
    Default                     : Yes
    Forced                      : Yes

    Audio #2
    ID                          : 3
    Format                      : E-AC-3 JOC
    Format/Info                 : Enhanced AC-3 with Joint Object Coding
    Commercial name             : Dolby Digital Plus with Dolby Atmos
    Format settings             : Dolby Surround EX
    Codec ID                    : A_EAC3
    Duration                    : 37 min 21 s
    Bit rate mode               : Constant
    Bit rate                    : 768 kb/s
    Channel(s)                  : 6 channels
    Channel layout              : L R C LFE Ls Rs
    Sampling rate               : 48.0 kHz
    Frame rate                  : 31.250 FPS (1536 SPF)
    Compression mode            : Lossy
    Stream size                 : 205 MiB (6%)
    Title                       : Ingles [CinemaniaHDD]
    Language                    : English
    Service kind                : Complete Main
    Default                     : No
    Forced                      : No
    Complexity index            : 16
    Number of dynamic objects   : 15
    Bed channel count           : 1 channel
    Bed channel configuration   : LFE

    Text #1
    ID                          : 4
    Format                      : UTF-8
    Codec ID                    : S_TEXT/UTF8
    Codec ID/Info               : UTF-8 Plain Text
    Duration                    : 36 min 21 s
    Bit rate                    : 0 b/s
    Count of elements           : 4
    Stream size                 : 130 Bytes (0%)
    Title                       : Forzados-SRT [CinemaniaHDD]
    Language                    : Spanish
    Default                     : Yes
    Forced                      : Yes

    Text #2
    ID                          : 5
    Format                      : UTF-8
    Codec ID                    : S_TEXT/UTF8
    Codec ID/Info               : UTF-8 Plain Text
    Duration                    : 37 min 3 s
    Bit rate                    : 59 b/s
    Count of elements           : 430
    Stream size                 : 16.2 KiB (0%)
    Title                       : Español-SRT [CinemaniaHDD]
    Language                    : Spanish
    Default                     : No
    Forced                      : No

    Text #3
    ID                          : 6
    Format                      : UTF-8
    Codec ID                    : S_TEXT/UTF8
    Codec ID/Info               : UTF-8 Plain Text
    Duration                    : 35 min 33 s
    Bit rate                    : 62 b/s
    Count of elements           : 435
    Stream size                 : 16.2 KiB (0%)
    Title                       : Ingles-SRT [CinemaniaHDD]
    Language                    : English
    Default                     : No
    Forced                      : No

    Menu
    00:33:51.708                : Credits

  • Peso: 4 GiB -- 29.19 GiB -- 8 Chapters

Sinopsis

Descargar Percy Jackson y los dioses del Olimpo (2023) Temporada 1 WEB-DL 4K UHD HDR Latino. Percy Jackson está en una peligrosa misión. Evadiendo monstruos y superando dioses, debe cruzar el país para devolver el rayo maestro de Zeus y evitar una guerra. Con la ayuda de sus compañeros de misión, Annabeth y Grover, el viaje de Percy lo llevará a responderse cómo encajar en un mundo en el que se siente fuera de lugar y a descubrir cuál es su destino.

Audio Español Latino EAC3 5.1 D+ – Ingles EAC3 JOC 5.1 D+
8/8 Capítulos Agregados [Temporada Completa]

Ficha técnica

Video trailer de la película

Enlaces de descarga

Rip de Bluray

Descargar Percy Jackson y los dioses del Olimpo (2023) Temporada 1 WEB-DL 4K UHD HDR Latino




Aportes de DPeliculasHDmega la pass es:dpeliculashdmega.org Aportes de CinemaniaHD la pass es:cinemaniahdd.com Aportes recientes:cinemaniahdd.net

Películas relacionadas

  • Naturaleza Humana (2022) REMUX 1080p Latino

    Naturaleza Humana (2022) REMUX 1080p Latino

    2022
    Naturaleza Humana (2022) REMUX 1080p Latino

    1h 31m 2022

    Descargar Naturaleza Humana (2022) REMUX 1080p Latino. Una historia sobre la mayoría de edad contada...

    Director: Louie Gibson

    Género: Drama

    Actores: Tim Heidecker

  • Pobres criaturas (2023) WEB-DL 4K UHD HDR Latino

    Pobres criaturas (2023) WEB-DL 4K UHD HDR Latino

    2023
    Pobres criaturas (2023) WEB-DL 4K UHD HDR Latino

    2h 21m 2023

    Descargar Pobres criaturas (2023) WEB-DL 4K UHD HDR Latino. Bella Baxter es una joven revivida por el...

    Director: Yorgos Lanthimos

    Género: 4K HDR

    Actores: Zen Joshua Poisson

  • Wonka (2023) Full HD 1080p Latino-CMHDD

    Wonka (2023) Full HD 1080p Latino-CMHDD

    2023
    Wonka (2023) Full HD 1080p Latino-CMHDD

    1h 57m 2023

    Descargar Wonka (2023) Full HD 1080p Latino-CMHDD. Basada en el personaje que protagoniza "Charlie y...

    Director: Zoe Morgan

    Género: Comedia

    Actores: Tracy Ifeachor

descargar Percy Jackson y los dioses del Olimpo (2023) Temporada 1 WEB-DL 4K UHD HDR Latino WEBDL 1080p gratis, Percy Jackson y los dioses del Olimpo (2023) Temporada 1 WEB-DL 4K UHD HDR Latino WEBDL mega 1 link, Percy Jackson y los dioses del Olimpo (2023) Temporada 1 WEB-DL 4K UHD HDR Latino WEBDL serie completa, descargar Percy Jackson y los dioses del Olimpo (2023) Temporada 1 WEB-DL 4K UHD HDR Latino WEBDL gratis en mega.

Percy Jackson y los dioses del Olimpo (2023) Temporada 1 WEB-DL 4K UHD HDR Latino pelicula full hd, Percy Jackson y los dioses del Olimpo (2023) Temporada 1 WEB-DL 4K UHD HDR Latino mega latino, Percy Jackson y los dioses del Olimpo (2023) Temporada 1 WEB-DL 4K UHD HDR Latino 4k latino, Percy Jackson y los dioses del Olimpo (2023) Temporada 1 WEB-DL 4K UHD HDR Latino pelicula completa, Percy Jackson y los dioses del Olimpo (2023) Temporada 1 WEB-DL 4K UHD HDR Latino descargar gratis, descargar Percy Jackson y los dioses del Olimpo (2023) Temporada 1 WEB-DL 4K UHD HDR Latino pelicula latino, Percy Jackson y los dioses del Olimpo (2023) Temporada 1 WEB-DL 4K UHD HDR Latino 1 link mega, Percy Jackson y los dioses del Olimpo (2023) Temporada 1 WEB-DL 4K UHD HDR Latino 1 link google drive, Percy Jackson y los dioses del Olimpo (2023) Temporada 1 WEB-DL 4K UHD HDR Latino hd 1080p latino.
Comentarios 0