The Boys (2020) Temporada 2 AMZN WEB-DL 1080p Latino

56 vistas
1 estrella2 estrellas3 estrellas4 estrellas5 estrellas (3 votos, promedio: 5,00 de 5)
Cargando...

Información de The Boys (2020) Temporada 2 AMZN WEB-DL 1080p Latino

Datos de la película

  • Calidad: WEBDL
  • Audio: Español Latino E-AC3 5.1 AMAZON - Ingles E-AC3 5.1 AMAZON
  • Subtitulos: Español Latino SRT- FORZADOS SRT
  • Resolución: 1920x800
  • Formato: MKV
  • Codec: H.264
  • Encoder: cinemaniahdd
  • Mediainfo: Clic para Mostrar Datos Ver
  • The Boys T02E01 AMZN WEB-DL 1080p Latino [CNMNHDD].mkv
    Format                      : Matroska
    Format version              : Version 4
    File size                   : 4.16 GiB
    Duration                    : 1 h 2 min
    Overall bit rate            : 9 457 kb/s
    Movie name                  : The Boys T02E01 - CinemaniaHDD.Net
    Encoded date                : UTC 2020-09-04 02:03:17
    Writing application         : mkvmerge v46.0.0 ('No Deeper Escape') 64-bit
    Writing library             : libebml v1.3.10 + libmatroska v1.5.2

    Video
    ID                          : 1
    Format                      : AVC
    Format/Info                 : Advanced Video Codec
    Format profile              : High@L4
    Format settings             : CABAC / 4 Ref Frames
    Format settings, CABAC      : Yes
    Format settings, Reference  : 4 frames
    Codec ID                    : V_MPEG4/ISO/AVC
    Duration                    : 1 h 2 min
    Bit rate mode               : Constant
    Bit rate                    : 7 535 kb/s
    Nominal bit rate            : 10 000 kb/s
    Width                       : 1 920 pixels
    Height                      : 800 pixels
    Display aspect ratio        : 2.40:1
    Frame rate mode             : Constant
    Frame rate                  : 23.976 (24000/1001) FPS
    Color space                 : YUV
    Chroma subsampling          : 4:2:0
    Bit depth                   : 8 bits
    Scan type                   : Progressive
    Bits/(Pixel*Frame)          : 0.205
    Stream size                 : 3.31 GiB (80%)
    Title                       : CinemaniaHDD
    Default                     : Yes
    Forced                      : No
    Color range                 : Limited
    Color primaries             : BT.709
    Transfer characteristics    : BT.709
    Matrix coefficients         : BT.709

    Audio #1
    ID                          : 2
    Format                      : AC-3
    Format/Info                 : Audio Coding 3
    Commercial name             : Dolby Digital
    Codec ID                    : A_AC3
    Duration                    : 1 h 2 min
    Bit rate mode               : Constant
    Bit rate                    : 640 kb/s
    Channel(s)                  : 6 channels
    Channel layout              : L R C LFE Ls Rs
    Sampling rate               : 48.0 kHz
    Frame rate                  : 31.250 FPS (1536 SPF)
    Compression mode            : Lossy
    Stream size                 : 288 MiB (7%)
    Title                       : Español latino [CinemaniaHDD]
    Language                    : Spanish
    Service kind                : Complete Main
    Default                     : Yes
    Forced                      : No

    Audio #2
    ID                          : 3
    Format                      : E-AC-3
    Format/Info                 : Enhanced AC-3
    Commercial name             : Dolby Digital Plus
    Codec ID                    : A_EAC3
    Duration                    : 1 h 2 min
    Bit rate mode               : Constant
    Bit rate                    : 640 kb/s
    Channel(s)                  : 6 channels
    Channel layout              : L R C LFE Ls Rs
    Sampling rate               : 48.0 kHz
    Frame rate                  : 31.250 FPS (1536 SPF)
    Compression mode            : Lossy
    Stream size                 : 288 MiB (7%)
    Title                       : Español latino [CinemaniaHDD]
    Language                    : Spanish
    Service kind                : Complete Main
    Default                     : No
    Forced                      : No

    Audio #3
    ID                          : 4
    Format                      : E-AC-3
    Format/Info                 : Enhanced AC-3
    Commercial name             : Dolby Digital Plus
    Codec ID                    : A_EAC3
    Duration                    : 1 h 2 min
    Bit rate mode               : Constant
    Bit rate                    : 640 kb/s
    Channel(s)                  : 6 channels
    Channel layout              : L R C LFE Ls Rs
    Sampling rate               : 48.0 kHz
    Frame rate                  : 31.250 FPS (1536 SPF)
    Compression mode            : Lossy
    Stream size                 : 288 MiB (7%)
    Title                       : Inglés [CinemaniaHDD]
    Language                    : English
    Service kind                : Complete Main
    Default                     : No
    Forced                      : No

    Text #1
    ID                          : 5
    Format                      : UTF-8
    Codec ID                    : S_TEXT/UTF8
    Codec ID/Info               : UTF-8 Plain Text
    Duration                    : 55 min 56 s
    Bit rate                    : 2 b/s
    Count of elements           : 29
    Stream size                 : 966 Bytes (0%)
    Title                       : Forzados [CinemaniaHDD]
    Language                    : Spanish
    Default                     : Yes
    Forced                      : Yes

    Text #2
    ID                          : 6
    Format                      : UTF-8
    Codec ID                    : S_TEXT/UTF8
    Codec ID/Info               : UTF-8 Plain Text
    Duration                    : 53 min 9 s
    Bit rate                    : 5 b/s
    Count of elements           : 81
    Stream size                 : 2.20 KiB (0%)
    Title                       : Español latino [CinemaniaHDD]
    Language                    : Spanish
    Default                     : No
    Forced                      : No

    Text #3
    ID                          : 7
    Format                      : UTF-8
    Codec ID                    : S_TEXT/UTF8
    Codec ID/Info               : UTF-8 Plain Text
    Duration                    : 1 h 2 min
    Bit rate                    : 72 b/s
    Count of elements           : 1164
    Stream size                 : 33.2 KiB (0%)
    Title                       : Inglés [CinemaniaHDD]
    Language                    : English
    Default                     : No
    Forced                      : No

     

  • Peso: 4.16 GiB C/U --- 5 CAPITULOS AGREGADOS

Sinopsis

En una intensa y desesperada Temporada 2 de The Boys, Butcher, Hughie y el equipo se tambalean por sus pérdidas en la Temporada 1. Huyendo de la ley, tratan de luchar contra los Superhéroes. Vought, la compañía que administra a los héroes, aprovecha el pánico por la amenaza de los Supervillanos y un héroe nuevo, Stormfront, sacude a la compañía y desafía a un Homelander de por sí inestable.
5 CAPITULOS AGREGADOS

Ficha técnica

Video trailer de la película

Enlaces de descarga

Rip de Bluray

Descargar The Boys (2020) Temporada 2 AMZN WEB-DL 1080p Latino




Aportes de DPeliculasHDmega la pass es:dpeliculashdmega.org Aportes de CinemaniaHD la pass es:cinemaniahdd.com

Películas relacionadas

Comentarios 7
  • Ruddy Yankee - 07 septiembre, 2020

    Cada que tiempo seguirán subiendo los demás capítulos?

    • CinemaniaHDD - 08 septiembre, 2020

      1 cada fin de semana

  • Andrex - 05 septiembre, 2020

    Los subtitulos del primer capitulo en español no aparece, los 2 siguientes capítulos si lo aparecen. Creo que esta mal subido los subtitulos del primer capitulo, por favor, hay que reeditar para que aparezcan los subtitulos. Solo ha puesto los subtitulos en inglés, solo en el primer capitulo, le fallaron en forzado y español-latino.

    Muchas gracias.

    • CinemaniaHDD - 05 septiembre, 2020

      Hola, lo acabo de revisar y todo esta bien
      hasta en la info del post deje el mediainfo del 1er episodio y alli sale el contenido del mkv y esa info no a sido editada

      • Andrex - 11 septiembre, 2020

        De acuerdo, por ejemplo, le pregunté a una amiga mía y me dijo que también le fallaron los subtítulos porque no aparecieron, y le confirmó que es un fallo de Amazon. Creo que tiene que reeditar para corregir este fallo y aparecer los subtítulos del primer capitulo.

        Muchas gracias y saludo cordial.

        • CinemaniaHDD - 12 septiembre, 2020

          bueno, volvere a descargar ese capitulo y lo resubire…

          • Andrex - 15 septiembre, 2020

            Ahora si sale los subtítulos en español, en el primer capitulo. Todo bien corregido y muchísimas gracias!! Un gran saludo cordial y sigue así!!