×

¿Problemas para descargar con Mozilla, EDGE? Deshabilita la opción "Abrir vinculos en una pestaña nueva" tal como lo muestra ésta imagen.

Rubirosa (2018) Temporada 1 1080p WEB-DL Latino

1.311 vistas

Información de Rubirosa (2018) Temporada 1 1080p WEB-DL Latino

Datos de la película

  • Calidad: WEBDL
  • Audio: Español Latino AC3 2.0 ClaroVideo
  • Subtitulos: Español Latino SRT
  • Resolución: 1920x1080
  • Formato: MKV
  • Codec: H.264
  • Encoder: cinemaniahdd
  • Mediainfo: Clic para Mostrar Datos Ver
  • Rubirosa T01E01 (2018) 1080p WEB-DL Latino.mkv
    Format                      : Matroska
    Format version              : Version 4
    File size                   : 1.36 GiB
    Duration                    : 48 min 47 s
    Overall bit rate            : 4 005 kb/s
    Movie name                  : CinemaniaHDD.Net
    Encoded date                : UTC 2019-02-28 23:31:48
    Writing application         : mkvmerge v22.0.0 ('At The End Of The World') 64-bit
    Writing library             : libebml v1.3.5 + libmatroska v1.4.8

    Video
    ID                          : 1
    Format                      : AVC
    Format/Info                 : Advanced Video Codec
    Format profile              : High@L4
    Format settings             : CABAC / 2 Ref Frames
    Format settings, CABAC      : Yes
    Format settings, ReFrames   : 2 frames
    Format settings, GOP        : M=1, N=60
    Codec ID                    : V_MPEG4/ISO/AVC
    Duration                    : 48 min 47 s
    Bit rate mode               : Constant
    Bit rate                    : 4 000 kb/s
    Width                       : 1 920 pixels
    Height                      : 1 080 pixels
    Display aspect ratio        : 16:9
    Frame rate mode             : Constant
    Frame rate                  : 23.976 (24000/1001) FPS
    Color space                 : YUV
    Chroma subsampling          : 4:2:0
    Bit depth                   : 8 bits
    Scan type                   : Progressive
    Bits/(Pixel*Frame)          : 0.080
    Stream size                 : 1.32 GiB (97%)
    Title                       : CinemaniaHDD.Net
    Default                     : Yes
    Forced                      : No
    Color range                 : Limited
    Color primaries             : BT.709
    Transfer characteristics    : BT.709
    Matrix coefficients         : BT.709

    Audio
    ID                          : 2
    Format                      : AAC LC
    Format/Info                 : Advanced Audio Codec Low Complexity
    Codec ID                    : A_AAC-2
    Duration                    : 48 min 47 s
    Bit rate                    : 128 kb/s
    Channel(s)                  : 2 channels
    Channel layout              : L R
    Sampling rate               : 44.1 kHz
    Frame rate                  : 43.066 FPS (1024 SPF)
    Compression mode            : Lossy
    Stream size                 : 44.7 MiB (3%)
    Title                       : CinemaniaHDD.Net
    Language                    : Spanish
    Default                     : Yes
    Forced                      : No

    Text
    ID                          : 3
    Format                      : UTF-8
    Codec ID                    : S_TEXT/UTF8
    Codec ID/Info               : UTF-8 Plain Text
    Duration                    : 44 min 5 s
    Bit rate                    : 65 b/s
    Count of elements           : 520
    Stream size                 : 21.2 KiB (0%)
    Title                       : CinemaniaHDD.Net
    Language                    : Spanish
    Default                     : No
    Forced                      : No

  • Peso: 1.36 GiB Aprox. Total 12.7 GiB

Sinopsis

Narra la historia de Porfirio Rubirosa, playboy dominicano y supuesto espía del dictador Rafael Leónidas Trujillo Molina. Esta es la primera entrega de la trilogía de Porfirio Rubirosa, quién fuera un militar y deportista que llegó a situarse en lo más alto de la «jet set» internacional gracias a sus dotes de seductor.

Ficha técnica

Video trailer de la película

Enlaces de descarga

Rip de Bluray

Descargar Rubirosa (2018) Temporada 1 1080p WEB-DL Latino




Aportes de DPeliculasHDmega la pass es:dpeliculashdmega.org Aportes de CinemaniaHD la pass es:cinemaniahdd.com
Guardado en : Action & Adventure

Películas relacionadas

descargar Rubirosa (2018) Temporada 1 1080p WEB-DL Latino WEBDL 1080p gratis, Rubirosa (2018) Temporada 1 1080p WEB-DL Latino WEBDL mega 1 link, Rubirosa (2018) Temporada 1 1080p WEB-DL Latino WEBDL pelicula completa, descargar Rubirosa (2018) Temporada 1 1080p WEB-DL Latino WEBDL gratis en mega.

Rubirosa (2018) Temporada 1 1080p WEB-DL Latino pelicula full hd, Rubirosa (2018) Temporada 1 1080p WEB-DL Latino mega latino, Rubirosa (2018) Temporada 1 1080p WEB-DL Latino 4k latino, Rubirosa (2018) Temporada 1 1080p WEB-DL Latino pelicula completa, Rubirosa (2018) Temporada 1 1080p WEB-DL Latino descargar gratis, descargar Rubirosa (2018) Temporada 1 1080p WEB-DL Latino pelicula latino, Rubirosa (2018) Temporada 1 1080p WEB-DL Latino 1 link mega, Rubirosa (2018) Temporada 1 1080p WEB-DL Latino 1 link google drive, Rubirosa (2018) Temporada 1 1080p WEB-DL Latino hd 1080p latino.
Comentarios 0