×

¿Problemas para descargar con Mozilla, EDGE? Deshabilita la opción "Abrir vinculos en una pestaña nueva" tal como lo muestra ésta imagen.

Mansión embrujada (2023) REMUX 1080p Latino

166 vistas

Información de Mansión embrujada (2023) REMUX 1080p Latino

Datos de la película

  • Calidad: Full 1080p
  • Audio: Se especifica abajo de la Sinopsis
  • Subtitulos: Español Latino PGS - Ingles PGS
  • Resolución: 1920x1080p
  • Formato: MKV
  • Codec: H.264
  • Encoder: Melkor
  • Mediainfo: Clic para Mostrar Datos Ver
  • Mansion Embrujada (2023) REMUX 1080p Latino.mkv
    Format                      : Matroska
    Format version              : Version 4
    File size                   : 30.6 GiB
    Duration                    : 2 h 2 min
    Overall bit rate mode       : Variable
    Overall bit rate            : 35.6 Mb/s
    Movie name                  : Haunted Mansion (2023) CinemaniaHDD.Net
    Encoded date                : UTC 2023-10-15 19:33:41
    Writing application         : mkvmerge v56.1.0 ('My Friend') 64-bit
    Writing library             : libebml v1.4.2 + libmatroska v1.6.4
    Attachments                 : CINEMANIAHD.png
    Site                        : CinemaniaHDD.Net
    Uploader                    : Melkor

    Video
    ID                          : 1
    Format                      : AVC
    Format/Info                 : Advanced Video Codec
    Format profile              : High@L4.1
    Format settings             : CABAC / 2 Ref Frames
    Format settings, CABAC      : Yes
    Format settings, Reference  : 2 frames
    Codec ID                    : V_MPEG4/ISO/AVC
    Duration                    : 2 h 2 min
    Bit rate mode               : Variable
    Bit rate                    : 29.8 Mb/s
    Width                       : 1 920 pixels
    Height                      : 1 080 pixels
    Display aspect ratio        : 16:9
    Frame rate mode             : Constant
    Frame rate                  : 23.976 (24000/1001) FPS
    Color space                 : YUV
    Chroma subsampling          : 4:2:0
    Bit depth                   : 8 bits
    Scan type                   : Progressive
    Bits/(Pixel*Frame)          : 0.600
    Stream size                 : 25.6 GiB (84%)
    Title                       : REMUX HD1080p [CinemaniaHDD]
    Default                     : Yes
    Forced                      : Yes

    Audio #1
    ID                          : 2
    Format                      : AC-3
    Format/Info                 : Audio Coding 3
    Commercial name             : Dolby Digital
    Codec ID                    : A_AC3
    Duration                    : 2 h 2 min
    Bit rate mode               : Constant
    Bit rate                    : 640 kb/s
    Channel(s)                  : 6 channels
    Channel layout              : L R C LFE Ls Rs
    Sampling rate               : 48.0 kHz
    Frame rate                  : 31.250 FPS (1536 SPF)
    Compression mode            : Lossy
    Stream size                 : 563 MiB (2%)
    Title                       : Español Latino AC3 [CinemaniaHDD]
    Language                    : Spanish
    Service kind                : Complete Main
    Default                     : Yes
    Forced                      : Yes

    Audio #2
    ID                          : 3
    Format                      : E-AC-3
    Format/Info                 : Enhanced AC-3
    Commercial name             : Dolby Digital Plus
    Codec ID                    : A_EAC3
    Duration                    : 2 h 2 min
    Bit rate mode               : Constant
    Bit rate                    : 256 kb/s
    Channel(s)                  : 6 channels
    Channel layout              : L R C LFE Ls Rs
    Sampling rate               : 48.0 kHz
    Frame rate                  : 31.250 FPS (1536 SPF)
    Compression mode            : Lossy
    Stream size                 : 225 MiB (1%)
    Title                       : Español Latino EAC3 [CinemaniaHDD]
    Language                    : Spanish
    Service kind                : Complete Main
    Default                     : No
    Forced                      : No

    Audio #3
    ID                          : 4
    Format                      : DTS XLL
    Format/Info                 : Digital Theater Systems
    Commercial name             : DTS-HD Master Audio
    Codec ID                    : A_DTS
    Duration                    : 2 h 2 min
    Bit rate mode               : Variable
    Bit rate                    : 4 786 kb/s
    Channel(s)                  : 8 channels
    Channel layout              : C L R LFE Lb Rb Lss Rss
    Sampling rate               : 48.0 kHz
    Frame rate                  : 93.750 FPS (512 SPF)
    Bit depth                   : 24 bits
    Compression mode            : Lossless
    Stream size                 : 4.11 GiB (13%)
    Title                       : Ingles [CinemaniaHDD]
    Language                    : English
    Default                     : No
    Forced                      : No

    Text #1
    ID                          : 5
    Format                      : PGS
    Muxing mode                 : zlib
    Codec ID                    : S_HDMV/PGS
    Codec ID/Info               : Picture based subtitle format used on BDs/HD-DVDs
    Duration                    : 1 h 54 min
    Bit rate                    : 45.3 kb/s
    Count of elements           : 3956
    Stream size                 : 37.1 MiB (0%)
    Title                       : Español-PGS [CinemaniaHDD]
    Language                    : Spanish
    Default                     : No
    Forced                      : No

    Text #2
    ID                          : 6
    Format                      : PGS
    Muxing mode                 : zlib
    Codec ID                    : S_HDMV/PGS
    Codec ID/Info               : Picture based subtitle format used on BDs/HD-DVDs
    Duration                    : 1 h 54 min
    Bit rate                    : 64.9 kb/s
    Count of elements           : 5132
    Stream size                 : 53.2 MiB (0%)
    Title                       : Ingles-PGS [CinemaniaHDD]
    Language                    : English
    Default                     : No
    Forced                      : No

    Text #3
    ID                          : 7
    Format                      : UTF-8
    Codec ID                    : S_TEXT/UTF8
    Codec ID/Info               : UTF-8 Plain Text
    Duration                    : 1 h 50 min
    Bit rate                    : 0 b/s
    Count of elements           : 17
    Stream size                 : 409 Bytes (0%)
    Title                       : Forzados-SRT [CinemaniaHDD]
    Language                    : Spanish
    Default                     : Yes
    Forced                      : Yes

    Text #4
    ID                          : 8
    Format                      : UTF-8
    Codec ID                    : S_TEXT/UTF8
    Codec ID/Info               : UTF-8 Plain Text
    Duration                    : 1 h 54 min
    Bit rate                    : 66 b/s
    Count of elements           : 1978
    Stream size                 : 56.2 KiB (0%)
    Title                       : Español-SRT [CinemaniaHDD]
    Language                    : Spanish
    Default                     : No
    Forced                      : No

    Menu
    00:00:00.000                : Chapter 01
    00:03:18.031                : Chapter 02
    00:11:05.874                : Chapter 03
    00:15:29.720                : Chapter 04
    00:21:45.888                : Chapter 05
    00:24:43.107                : Chapter 06
    00:30:52.934                : Chapter 07
    00:37:36.754                : Chapter 08
    00:48:25.402                : Chapter 09
    00:53:02.471                : Chapter 10
    01:00:44.140                : Chapter 11
    01:05:18.873                : Chapter 12
    01:12:18.751                : Chapter 13
    01:17:20.302                : Chapter 14
    01:20:19.106                : Chapter 15
    01:23:58.992                : Chapter 16
    01:27:29.536                : Chapter 17
    01:33:32.398                : Chapter 18
    01:38:44.377                : Chapter 19
    01:51:06.118                : Chapter 20
    01:54:12.220                : Chapter 21

  • Peso: 30.6 GiB

Sinopsis

Descargar Mansión embrujada (2023) REMUX 1080p Latino. Inspirada en la clásica atracción del parque temático, Mansión Encantada (Haunted Mansion) cuenta la historia de una mujer y su hijo que reclutan a un variopinto grupo de expertos espirituales para que les ayuden a liberar su hogar de unos ocupantes sobrenaturales.

Español Latino AC3 & EAC3 5.1 – Ingles DTS-HD 7.1

Ficha técnica

Video trailer de la película

Enlaces de descarga

Rip de Bluray

Descargar Mansión embrujada (2023) REMUX 1080p Latino




Aportes de DPeliculasHDmega la pass es:dpeliculashdmega.org Aportes de CinemaniaHD la pass es:cinemaniahdd.com Aportes recientes:cinemaniahdd.net
Guardado en : Comedy , Family , Fantasy , Horror , Remux

Películas relacionadas

  • Cómplices del engaño (2024) REMUX 1080p Latino

    Cómplices del engaño (2024) REMUX 1080p Latino

    2024
    Cómplices del engaño (2024) REMUX 1080p Latino

    1h 56m 2024

    Descargar Cómplices del engaño (2024) REMUX 1080p Latino. Gary Johnson es el asesino profesional más...

    Director: T.J. Larson

    Género: Comedia

    Actores: Tre Styles

  • La melodía del diablo (2023) REMUX 1080p Latino

    La melodía del diablo (2023) REMUX 1080p Latino

    2023
    La melodía del diablo (2023) REMUX 1080p Latino

    1h 35m 2023

    Descargar La melodía del diablo (2023) REMUX 1080p Latino. Una joven compositora se encuentra frente...

    Director: Erlingur Thoroddsen

    Género: Remux

    Actores: Salomé Chandler

  • Abigail (2024) REMUX 1080p Latino-CMHDD

    Abigail (2024) REMUX 1080p Latino-CMHDD

    2024
    Abigail (2024) REMUX 1080p Latino-CMHDD

    1h 49m 2024

    Descargar Abigail (2024) REMUX 1080p Latino-CMHDD. A una banda de delincuentes se les ha encargado secuestrar...

    Director: Wade Allen

    Género: Remux

    Actores: William Catlett

  • Van Helsing (2004) REMUX 1080p Latino – CMHDD

    Van Helsing (2004) REMUX 1080p Latino – CMHDD

    2004
    Van Helsing (2004) REMUX 1080p Latino – CMHDD

    2h 11m 2004

    Descargar Van Helsing (2004) REMUX 1080p Latino. Siglo XIX. En medio de los montes de los Cárpatos está...

    Director: Sylvie Chesneau

    Género: Acción

    Actores: Zuzana Durdinová

descargar Mansión embrujada (2023) REMUX 1080p Latino Full 1080p 1080p gratis, Mansión embrujada (2023) REMUX 1080p Latino Full 1080p mega 1 link, Mansión embrujada (2023) REMUX 1080p Latino Full 1080p pelicula completa, descargar Mansión embrujada (2023) REMUX 1080p Latino Full 1080p gratis en mega.

Mansión embrujada (2023) REMUX 1080p Latino pelicula full hd, Mansión embrujada (2023) REMUX 1080p Latino mega latino, Mansión embrujada (2023) REMUX 1080p Latino 4k latino, Mansión embrujada (2023) REMUX 1080p Latino pelicula completa, Mansión embrujada (2023) REMUX 1080p Latino descargar gratis, descargar Mansión embrujada (2023) REMUX 1080p Latino pelicula latino, Mansión embrujada (2023) REMUX 1080p Latino 1 link mega, Mansión embrujada (2023) REMUX 1080p Latino 1 link google drive, Mansión embrujada (2023) REMUX 1080p Latino hd 1080p latino.
Comentarios 0