×

¿Problemas para descargar con Mozilla, EDGE? Deshabilita la opción "Abrir vinculos en una pestaña nueva" tal como lo muestra ésta imagen.

Los Caballeros Del Zodiaco: El Inicio (2023) AMZN WEB-DL 1080p Latino

205 vistas

Información de Los Caballeros Del Zodiaco: El Inicio (2023) AMZN WEB-DL 1080p Latino

Datos de la película

  • Calidad: WEBDL
  • Audio: Español Latino AC3 5.1 WEB-DL - Ingles AC3 5.1 WEB-DL
  • Subtitulos: Español Latino SRT- FORZADOS SRT
  • Resolución: 1920x960p
  • Formato: MKV
  • Codec: H.264
  • Encoder: Melkor
  • Mediainfo: Clic para Mostrar Datos Ver
  • Los Caballeros Del Zodiaco. El Inicio (2023) AMZN WebDL 1080p Latino.mkv
    Format                      : Matroska
    Format version              : Version 4
    File size                   : 7.40 GiB
    Duration                    : 1 h 52 min
    Overall bit rate            : 9 401 kb/s
    Movie name                  : Knights of the Zodiac (2023) CinemaniaHDD.Net
    Encoded date                : UTC 2023-06-27 06:13:56
    Writing application         : mkvmerge v56.1.0 ('My Friend') 64-bit
    Writing library             : libebml v1.4.2 + libmatroska v1.6.4
    Attachments                 : CINEMANIAHD.png
    Site                        : CinemaniaHDD.Net
    Uploader                    : Melkor

    Video
    ID                          : 1
    Format                      : AVC
    Format/Info                 : Advanced Video Codec
    Format profile              : High@L4
    Format settings             : CABAC / 4 Ref Frames
    Format settings, CABAC      : Yes
    Format settings, Reference  : 4 frames
    Codec ID                    : V_MPEG4/ISO/AVC
    Duration                    : 1 h 52 min
    Bit rate mode               : Constant
    Bit rate                    : 8 376 kb/s
    Nominal bit rate            : 10 000 kb/s
    Width                       : 1 920 pixels
    Height                      : 960 pixels
    Display aspect ratio        : 2.000
    Frame rate mode             : Constant
    Frame rate                  : 23.976 (24000/1001) FPS
    Color space                 : YUV
    Chroma subsampling          : 4:2:0
    Bit depth                   : 8 bits
    Scan type                   : Progressive
    Bits/(Pixel*Frame)          : 0.190
    Stream size                 : 6.60 GiB (89%)
    Title                       : Web HD1080p [CinemaniaHDD]
    Default                     : Yes
    Forced                      : Yes
    Color range                 : Limited
    Color primaries             : BT.709
    Transfer characteristics    : BT.709
    Matrix coefficients         : BT.709

    Audio #1
    ID                          : 2
    Format                      : AC-3
    Format/Info                 : Audio Coding 3
    Commercial name             : Dolby Digital
    Codec ID                    : A_AC3
    Duration                    : 1 h 52 min
    Bit rate mode               : Constant
    Bit rate                    : 384 kb/s
    Channel(s)                  : 6 channels
    Channel layout              : L R C LFE Ls Rs
    Sampling rate               : 48.0 kHz
    Frame rate                  : 31.250 FPS (1536 SPF)
    Compression mode            : Lossy
    Stream size                 : 309 MiB (4%)
    Title                       : Español Latino [CinemaniaHDD]
    Language                    : Spanish
    Service kind                : Complete Main
    Default                     : Yes
    Forced                      : Yes

    Audio #2
    ID                          : 3
    Format                      : E-AC-3
    Format/Info                 : Enhanced AC-3
    Commercial name             : Dolby Digital Plus
    Codec ID                    : A_EAC3
    Duration                    : 1 h 52 min
    Bit rate mode               : Constant
    Bit rate                    : 640 kb/s
    Channel(s)                  : 6 channels
    Channel layout              : L R C LFE Ls Rs
    Sampling rate               : 48.0 kHz
    Frame rate                  : 31.250 FPS (1536 SPF)
    Compression mode            : Lossy
    Stream size                 : 516 MiB (7%)
    Title                       : Ingles [CinemaniaHDD]
    Language                    : English
    Service kind                : Complete Main
    Default                     : No
    Forced                      : No

    Text #1
    ID                          : 4
    Format                      : UTF-8
    Codec ID                    : S_TEXT/UTF8
    Codec ID/Info               : UTF-8 Plain Text
    Duration                    : 1 h 49 min
    Bit rate                    : 0 b/s
    Count of elements           : 10
    Stream size                 : 306 Bytes (0%)
    Title                       : Forzados-SRT [CinemaniaHDD]
    Language                    : Spanish
    Default                     : Yes
    Forced                      : Yes

    Text #2
    ID                          : 5
    Format                      : UTF-8
    Codec ID                    : S_TEXT/UTF8
    Codec ID/Info               : UTF-8 Plain Text
    Duration                    : 1 h 51 min
    Bit rate                    : 34 b/s
    Count of elements           : 941
    Stream size                 : 27.7 KiB (0%)
    Title                       : Español-SRT [CinemaniaHDD]
    Language                    : Spanish
    Default                     : No
    Forced                      : No

    Text #3
    ID                          : 6
    Format                      : UTF-8
    Codec ID                    : S_TEXT/UTF8
    Codec ID/Info               : UTF-8 Plain Text
    Duration                    : 1 h 41 min
    Bit rate                    : 35 b/s
    Count of elements           : 930
    Stream size                 : 26.6 KiB (0%)
    Title                       : Ingles-SRT [CinemaniaHDD]
    Language                    : English
    Default                     : No
    Forced                      : No

  • Peso: 7.40 GiB

Sinopsis

Descargar Los Caballeros Del Zodiaco: El Inicio (2023) AMZN WEB-DL 1080p Latino. Nacido bajo la estrella de Pegaso, la misión de Seiya es proteger a Siena, la reencarnación de Athena, la diosa de la sabiduría y la batalla, y salva el mundo. Cuando se da cuenta de su poder oculto, se convierte en un ‘Caballero’ para salvar este mundo.

Ficha técnica

Video trailer de la película

Enlaces de descarga

Rip de Bluray

Descargar Los Caballeros Del Zodiaco: El Inicio (2023) AMZN WEB-DL 1080p Latino




Aportes de DPeliculasHDmega la pass es:dpeliculashdmega.org Aportes de CinemaniaHD la pass es:cinemaniahdd.com Aportes recientes:cinemaniahdd.net
Guardado en : Action , Adventure , Fantasy

Películas relacionadas

  • Blue Beetle (2023) Full HD 1080p Latino-CMHDD

    Blue Beetle (2023) Full HD 1080p Latino-CMHDD

    2023
    Blue Beetle (2023) Full HD 1080p Latino-CMHDD

    2h 8m 2023

    Descargar Blue Beetle (2023) Full HD 1080p Latino-CMHDD. Jaime Reyes, recién licenciado, regresa a casa...

    Director: K.C. Hodenfield

    Género: Action

    Actores: Yuli Zorrilla

  • Mansión embrujada (2023) HD 1080p Latino

    Mansión embrujada (2023) HD 1080p Latino

    2023
    Mansión embrujada (2023) HD 1080p Latino

    2h 3m 2023

    Descargar Mansión embrujada (2023) HD 1080p Latino. Inspirada en la clásica atracción del parque temático,...

    Director: Tyler Wade Vaughn

    Género: Comedy

    Actores: Winona Ryder

  • Mansión embrujada (2023) REMUX 1080p Latino

    Mansión embrujada (2023) REMUX 1080p Latino

    2023
    Mansión embrujada (2023) REMUX 1080p Latino

    2h 3m 2023

    Descargar Mansión embrujada (2023) REMUX 1080p Latino. Inspirada en la clásica atracción del parque...

    Director: Tyler Wade Vaughn

    Género: Comedy

    Actores: Winona Ryder

  • Carga Máxima (2023) NF WEB-DL 1080p Latino

    Carga Máxima (2023) NF WEB-DL 1080p Latino

    2023
    Carga Máxima (2023) NF WEB-DL 1080p Latino

    1h 40m 2023

    Descargar Carga Máxima (2023) NF WEB-DL 1080p Latino. Rainha (Sheron Menezes) y Roger (Thiago Martins)...

    Director: Tomás Portella

    Género: Action

    Actores: Vitória Valentin

descargar Los Caballeros Del Zodiaco: El Inicio (2023) AMZN WEB-DL 1080p Latino WEBDL 1080p gratis, Los Caballeros Del Zodiaco: El Inicio (2023) AMZN WEB-DL 1080p Latino WEBDL mega 1 link, Los Caballeros Del Zodiaco: El Inicio (2023) AMZN WEB-DL 1080p Latino WEBDL pelicula completa, descargar Los Caballeros Del Zodiaco: El Inicio (2023) AMZN WEB-DL 1080p Latino WEBDL gratis en mega.

Los Caballeros Del Zodiaco: El Inicio (2023) AMZN WEB-DL 1080p Latino pelicula full hd, Los Caballeros Del Zodiaco: El Inicio (2023) AMZN WEB-DL 1080p Latino mega latino, Los Caballeros Del Zodiaco: El Inicio (2023) AMZN WEB-DL 1080p Latino 4k latino, Los Caballeros Del Zodiaco: El Inicio (2023) AMZN WEB-DL 1080p Latino pelicula completa, Los Caballeros Del Zodiaco: El Inicio (2023) AMZN WEB-DL 1080p Latino descargar gratis, descargar Los Caballeros Del Zodiaco: El Inicio (2023) AMZN WEB-DL 1080p Latino pelicula latino, Los Caballeros Del Zodiaco: El Inicio (2023) AMZN WEB-DL 1080p Latino 1 link mega, Los Caballeros Del Zodiaco: El Inicio (2023) AMZN WEB-DL 1080p Latino 1 link google drive, Los Caballeros Del Zodiaco: El Inicio (2023) AMZN WEB-DL 1080p Latino hd 1080p latino.
Comentarios 0