×

¿Problemas para descargar con Mozilla, EDGE? Deshabilita la opción "Abrir vinculos en una pestaña nueva" tal como lo muestra ésta imagen.

LEGION (2017) Primera Temporada REMUX 1080p Latino – CMHDD

218 vistas

Información de LEGION (2017) Primera Temporada REMUX 1080p Latino – CMHDD

Datos de la película

  • Calidad: Full 1080p
  • Audio: Español Latino AC3 2.0 BLURAY - Ingles DTS 5.1 BLURAY
  • Subtitulos: Español Latino SRT- FORZADOS SRT
  • Resolución: 1920x1080p
  • Formato: MKV
  • Codec: H.264
  • Encoder: Dracarys
  • Mediainfo: Clic para Mostrar Datos Ver
  • Format                      : Matroska
    Format version              : Version 4
    File size                   : 7.63 GiB
    Duration                    : 47 min 27 s
    Overall bit rate mode       : Variable
    Overall bit rate            : 23.0 Mb/s
    Movie name                  : LEGION (2017) [S1E02] REMUX 1080p Latino - CMHDD
    Encoded date                : UTC 2020-09-29 00:25:25
    Writing application         : mkvmerge v46.0.0 ('No Deeper Escape') 64-bit
    Writing library             : libebml v1.3.10 + libmatroska v1.5.2

    Video
    ID                          : 1
    Format                      : AVC
    Format/Info                 : Advanced Video Codec
    Format profile              : High@L4.1
    Format settings             : CABAC / 4 Ref Frames
    Format settings, CABAC      : Yes
    Format settings, Reference  : 4 frames
    Format settings, GOP        : M=3, N=12
    Codec ID                    : V_MPEG4/ISO/AVC
    Duration                    : 47 min 27 s
    Bit rate mode               : Variable
    Bit rate                    : 19.2 Mb/s
    Maximum bit rate            : 37.0 Mb/s
    Width                       : 1 920 pixels
    Height                      : 1 080 pixels
    Display aspect ratio        : 16:9
    Frame rate mode             : Constant
    Frame rate                  : 23.976 (24000/1001) FPS
    Color space                 : YUV
    Chroma subsampling          : 4:2:0
    Bit depth                   : 8 bits
    Scan type                   : Progressive
    Bits/(Pixel*Frame)          : 0.385
    Stream size                 : 6.35 GiB (83%)
    Default                     : Yes
    Forced                      : No

    Audio #1
    ID                          : 2
    Format                      : AC-3
    Format/Info                 : Audio Coding 3
    Commercial name             : Dolby Digital
    Codec ID                    : A_AC3
    Duration                    : 47 min 27 s
    Bit rate mode               : Constant
    Bit rate                    : 224 kb/s
    Channel(s)                  : 2 channels
    Channel layout              : L R
    Sampling rate               : 48.0 kHz
    Frame rate                  : 31.250 FPS (1536 SPF)
    Compression mode            : Lossy
    Stream size                 : 76.0 MiB (1%)
    Language                    : Spanish
    Service kind                : Complete Main
    Default                     : Yes
    Forced                      : No

    Audio #2
    ID                          : 3
    Format                      : DTS XLL
    Format/Info                 : Digital Theater Systems
    Commercial name             : DTS-HD Master Audio
    Codec ID                    : A_DTS
    Duration                    : 47 min 27 s
    Bit rate mode               : Variable
    Bit rate                    : 3 627 kb/s
    Channel(s)                  : 6 channels
    Channel layout              : C L R Ls Rs LFE
    Sampling rate               : 48.0 kHz
    Frame rate                  : 93.750 FPS (512 SPF)
    Bit depth                   : 24 bits
    Compression mode            : Lossless
    Stream size                 : 1.20 GiB (16%)
    Language                    : English
    Default                     : No
    Forced                      : No

    Text #1
    ID                          : 4
    Format                      : PGS
    Muxing mode                 : zlib
    Codec ID                    : S_HDMV/PGS
    Codec ID/Info               : Picture based subtitle format used on BDs/HD-DVDs
    Duration                    : 46 min 53 s
    Bit rate                    : 34.1 kb/s
    Count of elements           : 1258
    Stream size                 : 11.5 MiB (0%)
    Language                    : Spanish
    Default                     : No
    Forced                      : No

    Text #2
    ID                          : 5
    Format                      : UTF-8
    Codec ID                    : S_TEXT/UTF8
    Codec ID/Info               : UTF-8 Plain Text
    Duration                    : 46 min 53 s
    Bit rate                    : 49 b/s
    Count of elements           : 629
    Stream size                 : 16.9 KiB (0%)
    Language                    : Spanish
    Default                     : No
    Forced                      : No

    Text #3
    ID                          : 6
    Format                      : UTF-8
    Codec ID                    : S_TEXT/UTF8
    Codec ID/Info               : UTF-8 Plain Text
    Duration                    : 17 min 36 s
    Bit rate                    : 0 b/s
    Count of elements           : 4
    Stream size                 : 86.0 Bytes (0%)
    Language                    : Spanish
    Default                     : Yes
    Forced                      : No

  • Peso: 65,9 GiB Total

Sinopsis

Legion cuenta la historia de David Haller, hijo del fundador de la Patrulla X, Charles Xavier. Desde su adolescencia, David se ha enfrentado a una serie de trastornos mentales. Diagnosticado con esquizofrenia, este joven mutante además tiene un historial clínico bastante largo, y ha estado entrando y saliendo de hospitales psiquiátricos durante años. Sin embargo, no será hasta después de un extraño encuentro con un paciente que David se plantee que las voces que oye y las visiones que tiene podrían ser reales.

Legion es una serie de televisión dramática basada en el personaje de los cómics de Marvel del mismo nombre. Esta serie tiene como productor ejecutivo a Bryan Singer, director responsable por la franquicia de películas de X-Men, de donde deriva el título de esta producción. Lauren Shuler Donner, Simon kinberg, Jim Chory, y el responsable de televisión de Marvel, Jeph Loeb, acompañan a Singer en la producción de este programa para FX. El guión del piloto está escrito por el creador de Fargo, Noah Hawley. Legion es uno de los dos títulos con los que la colaboración entre Marvel y Fox planea dar el salto a la televisión. La otra producción es la serie de Hellfire, basada en El Club del Fuego Infernal, una sociedad secreta de villanos.

Ficha técnica

Video trailer de la película

Enlaces de descarga

Rip de Bluray

Descargar LEGION (2017) Primera Temporada REMUX 1080p Latino – CMHDD


Aportes de DPeliculasHDmega la pass es:dpeliculashdmega.org Aportes de CinemaniaHD la pass es:cinemaniahdd.com

Películas relacionadas

descargar LEGION (2017) Primera Temporada REMUX 1080p Latino – CMHDD Full 1080p 1080p gratis, LEGION (2017) Primera Temporada REMUX 1080p Latino – CMHDD Full 1080p mega 1 link, LEGION (2017) Primera Temporada REMUX 1080p Latino – CMHDD Full 1080p pelicula completa, descargar LEGION (2017) Primera Temporada REMUX 1080p Latino – CMHDD Full 1080p gratis en mega.

LEGION (2017) Primera Temporada REMUX 1080p Latino – CMHDD pelicula full hd, LEGION (2017) Primera Temporada REMUX 1080p Latino – CMHDD mega latino, LEGION (2017) Primera Temporada REMUX 1080p Latino – CMHDD 4k latino, LEGION (2017) Primera Temporada REMUX 1080p Latino – CMHDD pelicula completa, LEGION (2017) Primera Temporada REMUX 1080p Latino – CMHDD descargar gratis, descargar LEGION (2017) Primera Temporada REMUX 1080p Latino – CMHDD pelicula latino, LEGION (2017) Primera Temporada REMUX 1080p Latino – CMHDD 1 link mega, LEGION (2017) Primera Temporada REMUX 1080p Latino – CMHDD 1 link google drive, LEGION (2017) Primera Temporada REMUX 1080p Latino – CMHDD hd 1080p latino.
Comentarios 0