A Private War (2018) Full 1080p Subtitulado

1.014 vistas
1 estrella2 estrellas3 estrellas4 estrellas5 estrellas (1 votos, promedio: 4,00 de 5)
Cargando…

Información de A Private War (2018) Full 1080p Subtitulado

Datos de la película

  • Calidad: Full 1080p
  • Audio: Ingles DTS 5.1 BLURAY
  • Subtitulos: Español Latino PGS - Ingles PGS
  • Resolución: 1920x1080p
  • Formato: MKV
  • Codec: H.264
  • Encoder: CinefiloCool
  • Mediainfo: Clic para Mostrar Datos Ver
  • A Private War (2018) Full 1080p Subtitulado PLACEBO.mkv
    Format                      : Matroska
    Format version              : Version 4
    File size                   : 5.93 GiB
    Duration                    : 1 h 50 min
    Overall bit rate            : 7 678 kb/s
    Movie name                  : CinemaniaHDD.Net
    Encoded date                : UTC 2019-02-10 05:31:50
    Writing application         : mkvmerge v30.1.0 ('Forever And More') 64-bit
    Writing library             : libebml v1.3.6 + libmatroska v1.4.9

    Video
    ID                          : 1
    Format                      : AVC
    Format/Info                 : Advanced Video Codec
    Format profile              : [email protected]
    Format settings             : CABAC / 4 Ref Frames
    Format settings, CABAC      : Yes
    Format settings, ReFrames   : 4 frames
    Codec ID                    : V_MPEG4/ISO/AVC
    Duration                    : 1 h 50 min
    Bit rate                    : 6 147 kb/s
    Width                       : 1 920 pixels
    Height                      : 1 080 pixels
    Display aspect ratio        : 16:9
    Frame rate mode             : Constant
    Frame rate                  : 23.976 (24000/1001) FPS
    Color space                 : YUV
    Chroma subsampling          : 4:2:0
    Bit depth                   : 8 bits
    Scan type                   : Progressive
    Bits/(Pixel*Frame)          : 0.124
    Stream size                 : 4.75 GiB (80%)
    Title                       : Full HD1080p [Bluray]
    Writing library             : x264 core 157 r2935 545de2f
    Encoding settings           : cabac=1 / ref=4 / deblock=1:0:0 / analyse=0x3:0x133 / me=tesa / subme=11 / psy=1 / psy_rd=1.00:0.00 / mixed_ref=1 / me_range=24 / chroma_me=1 / trellis=2 / 8x8dct=1 / cqm=0 / deadzone=21,11 / fast_pskip=0 / chroma_qp_offset=-2 / threads=34 / lookahead_threads=8 / sliced_threads=0 / nr=0 / decimate=1 / interlaced=0 / bluray_compat=0 / constrained_intra=0 / bframes=16 / b_pyramid=2 / b_adapt=2 / b_bias=0 / direct=3 / weightb=1 / open_gop=0 / weightp=2 / keyint=240 / keyint_min=24 / scenecut=40 / intra_refresh=0 / rc_lookahead=60 / rc=crf / mbtree=1 / crf=20.0 / qcomp=0.60 / qpmin=0 / qpmax=69 / qpstep=4 / vbv_maxrate=62500 / vbv_bufsize=78125 / crf_max=0.0 / nal_hrd=none / filler=0 / ip_ratio=1.40 / aq=1:1.00
    Default                     : Yes
    Forced                      : No
    Color range                 : Limited
    Color primaries             : BT.709
    Transfer characteristics    : BT.709
    Matrix coefficients         : BT.709

    Audio
    ID                          : 2
    Format                      : DTS
    Format/Info                 : Digital Theater Systems
    Codec ID                    : A_DTS
    Duration                    : 1 h 50 min
    Bit rate mode               : Constant
    Bit rate                    : 1 509 kb/s
    Channel(s)                  : 6 channels
    Channel layout              : C L R Ls Rs LFE
    Sampling rate               : 48.0 kHz
    Frame rate                  : 93.750 FPS (512 SPF)
    Bit depth                   : 24 bits
    Compression mode            : Lossy
    Stream size                 : 1.17 GiB (20%)
    Title                       : DTS_5.1_Bluray_Eng
    Language                    : English
    Default                     : Yes
    Forced                      : Yes

    Text #1
    ID                          : 3
    Format                      : PGS
    Muxing mode                 : zlib
    Codec ID                    : S_HDMV/PGS
    Codec ID/Info               : Picture based subtitle format used on BDs/HD-DVDs
    Duration                    : 1 h 49 min
    Bit rate                    : 28.6 kb/s
    Count of elements           : 2118
    Stream size                 : 22.4 MiB (0%)
    Title                       : Sub_Esp [PGS]
    Language                    : Spanish
    Default                     : Yes
    Forced                      : Yes

    Text #2
    ID                          : 4
    Format                      : PGS
    Muxing mode                 : zlib
    Codec ID                    : S_HDMV/PGS
    Codec ID/Info               : Picture based subtitle format used on BDs/HD-DVDs
    Duration                    : 1 h 46 min
    Bit rate                    : 36.5 kb/s
    Count of elements           : 2621
    Stream size                 : 27.9 MiB (0%)
    Title                       : Sub_Eng [PGS]
    Language                    : English
    Default                     : No
    Forced                      : No

    Menu
    00:00:00.000                : :Chapter 1
    00:05:16.274                : :Chapter 2
    00:11:12.630                : :Chapter 3
    00:17:24.669                : :Chapter 4
    00:22:27.304                : :Chapter 5
    00:30:38.045                : :Chapter 6
    00:36:41.241                : :Chapter 7
    00:39:07.136                : :Chapter 8
    00:47:09.910                : :Chapter 9
    00:51:01.267                : :Chapter 10
    00:56:59.166                : :Chapter 11
    01:02:05.180                : :Chapter 12
    01:06:14.220                : :Chapter 13
    01:11:58.356                : :Chapter 14
    01:16:49.105                : :Chapter 15
    01:21:28.759                : :Chapter 16
    01:25:16.737                : :Chapter 17
    01:30:06.902                : :Chapter 18
    01:37:45.902                : :Chapter 19
    01:42:54.335                : :Chapter 20

  • Peso: 5.93 GiB

Sinopsis

Descargar A Private War (2018) Full 1080p Subtitulado, Mega, Google Drive. Marie Colvin (Rosamund Pike) fue una periodista reconocida mundialmente por su trabajo en distintos conflictos bélicos. Testigo de algunas cruentas batallas recientes, especialmente de lo sucedido en Oriente Medio, Colvin contaba con el respeto tanto de los lectores como de sus compañeros de profesión por su enorme valentía y humildad. Sin embargo, su personalidad era caótica y autodestructiva: abusaba del alcohol y su vida personal era, un auténtico desastre. Tras recibir el impacto de una granada en Sri Lanka, comienza a llevar un distintivo parche en el ojo mientras se sienta a tomar martinis rodeada de la alta sociedad londinense a la que tanto aborrece, hasta que un día recibe el más peligroso de todos los encargos, que acepta junto a su también prestigioso fotógrafo de guerra, Paul Conroy (Jamie Dornan). Juntos viajan a Siria para cubrir lo que sucede en la ciudad de Homs, donde aprenderá el verdadero coste de la guerra, tanto física como psicológicamente.

Ficha técnica

Video trailer de la película

Enlaces de descarga

Rip de Bluray

Descargar A Private War (2018) Full 1080p Subtitulado




Aportes de DPeliculasHDmega la pass es:dpeliculashdmega.org Aportes de CinemaniaHD la pass es:cinemaniahdd.com

Películas relacionadas

  • Miss Bala (2019) 1080p Latino

    2019
    Miss Bala (2019) 1080p Latino

    0.0 1h 44m 2019

    La ganadora de un concurso de belleza se ve obligada a trabajar para un jefe del crimen después de ser...

    Director: Catherine Hardwicke

    Género: Acción

    Actores: Roberto Sosa

  • Hanna (2019) Temporada 1 AMZN WEB-DL 1080p Latino

    2019
    Hanna (2019) Temporada 1 AMZN WEB-DL 1080p Latino

    0.0 0h 50m 2019

    Este thriller y el drama de la mayoría de edad sigue el viaje de una joven extraordinaria mientras evade...

    Director: David Farr

    Género: Action & Adventure

    Actores: Rhianne Barreto

Comentarios 0