×

¿Problemas para descargar con Mozilla, EDGE? Deshabilita la opción "Abrir vinculos en una pestaña nueva" tal como lo muestra ésta imagen.

Chucky (2023) Temporada 3 WEB-DL 1080p Latino

178 vistas

Información de Chucky (2023) Temporada 3 WEB-DL 1080p Latino

Datos de la película

  • Calidad: 1080p
  • Audio: Español Latino AC3 5.1 WEB-DL - Ingles AC3 5.1 WEB-DL
  • Subtitulos: Español Latino SRT- FORZADOS SRT
  • Resolución: 1920x1080
  • Formato: MKV
  • Codec: H.264
  • Encoder: cinemaniahdd
  • Mediainfo: Clic para Mostrar Datos Ver
  • Chucky T03E01 WEB-DL 1080p Latino [CNMNHDD].mkv
    Format                      : Matroska
    Format version              : Version 4
    File size                   : 2.65 GiB
    Duration                    : 43 min 32 s
    Overall bit rate            : 8 703 kb/s
    Movie name                  : Chucky S03E01 - Murder at 1600 [1080p] - CinemaniaHDD.Net
    Encoded date                : UTC 2023-10-14 00:04:07
    Writing application         : mkvmerge v56.1.0 ('My Friend') 64-bit
    Writing library             : libebml v1.4.2 + libmatroska v1.6.4

    Video
    ID                          : 1
    Format                      : AVC
    Format/Info                 : Advanced Video Codec
    Format profile              : High@L4
    Format settings             : CABAC / 3 Ref Frames
    Format settings, CABAC      : Yes
    Format settings, Reference  : 3 frames
    Codec ID                    : V_MPEG4/ISO/AVC
    Duration                    : 43 min 32 s
    Bit rate                    : 7 814 kb/s
    Maximum bit rate            : 12.7 Mb/s
    Width                       : 1 920 pixels
    Height                      : 1 080 pixels
    Display aspect ratio        : 16:9
    Frame rate mode             : Constant
    Frame rate                  : 23.976 (24000/1001) FPS
    Color space                 : YUV
    Chroma subsampling          : 4:2:0
    Bit depth                   : 8 bits
    Scan type                   : Progressive
    Bits/(Pixel*Frame)          : 0.126
    Stream size                 : 1.99 GiB (86%)
    Title                       : CinemaniaHDD.Net
    Language                    : English
    Default                     : Yes
    Forced                      : No
    Color range                 : Limited
    Color primaries             : BT.709
    Transfer characteristics    : BT.709
    Matrix coefficients         : BT.709

    Audio #1
    ID                          : 2
    Format                      : AC-3
    Format/Info                 : Audio Coding 3
    Commercial name             : Dolby Digital
    Codec ID                    : A_AC3
    Duration                    : 43 min 32 s
    Bit rate mode               : Constant
    Bit rate                    : 384 kb/s
    Channel(s)                  : 6 channels
    Channel layout              : L R C LFE Ls Rs
    Sampling rate               : 48.0 kHz
    Frame rate                  : 31.250 FPS (1536 SPF)
    Compression mode            : Lossy
    Stream size                 : 120 MiB (4%)
    Title                       : Español Latino [CinemaniaHDD]
    Language                    : Spanish
    Service kind                : Complete Main
    Default                     : Yes
    Forced                      : No

    Audio #2
    ID                          : 3
    Format                      : E-AC-3
    Format/Info                 : Enhanced AC-3
    Commercial name             : Dolby Digital Plus
    Codec ID                    : A_EAC3
    Duration                    : 43 min 32 s
    Bit rate mode               : Constant
    Bit rate                    : 256 kb/s
    Channel(s)                  : 6 channels
    Channel layout              : L R C LFE Ls Rs
    Sampling rate               : 48.0 kHz
    Frame rate                  : 31.250 FPS (1536 SPF)
    Compression mode            : Lossy
    Stream size                 : 79.7 MiB (3%)
    Title                       : Español Latino / E-AC3 [CinemaniaHDD]
    Language                    : Spanish
    Service kind                : Complete Main
    Default                     : No
    Forced                      : No

    Audio #3
    ID                          : 4
    Format                      : E-AC-3
    Format/Info                 : Enhanced AC-3
    Commercial name             : Dolby Digital Plus
    Codec ID                    : A_EAC3
    Duration                    : 43 min 32 s
    Bit rate mode               : Constant
    Bit rate                    : 256 kb/s
    Channel(s)                  : 6 channels
    Channel layout              : L R C LFE Ls Rs
    Sampling rate               : 48.0 kHz
    Frame rate                  : 31.250 FPS (1536 SPF)
    Compression mode            : Lossy
    Stream size                 : 79.7 MiB (3%)
    Title                       : Inglés [CinemaniaHDD]
    Language                    : English
    Service kind                : Complete Main
    Default                     : No
    Forced                      : No

    Text #1
    ID                          : 5
    Format                      : UTF-8
    Codec ID                    : S_TEXT/UTF8
    Codec ID/Info               : UTF-8 Plain Text
    Duration                    : 37 min 45 s
    Bit rate                    : 1 b/s
    Count of elements           : 17
    Stream size                 : 558 Bytes (0%)
    Title                       : Forzados [CinemaniaHDD]
    Language                    : Spanish
    Default                     : Yes
    Forced                      : Yes

    Text #2
    ID                          : 6
    Format                      : UTF-8
    Codec ID                    : S_TEXT/UTF8
    Codec ID/Info               : UTF-8 Plain Text
    Duration                    : 42 min 38 s
    Bit rate                    : 62 b/s
    Count of elements           : 649
    Stream size                 : 19.5 KiB (0%)
    Title                       : Español Latino [CinemaniaHDD]
    Language                    : Spanish
    Default                     : No
    Forced                      : No

    Text #3
    ID                          : 7
    Format                      : UTF-8
    Codec ID                    : S_TEXT/UTF8
    Codec ID/Info               : UTF-8 Plain Text
    Duration                    : 43 min 6 s
    Bit rate                    : 75 b/s
    Count of elements           : 788
    Stream size                 : 23.7 KiB (0%)
    Title                       : Inglés [CinemaniaHDD]
    Language                    : English
    Default                     : No
    Forced                      : No

     

  • Peso: 2.65 GiB C/U --- 4 CAPÍTULOS DISPONIBLES

Sinopsis

El infame Chucky se abre paso a cuchilladas hacia la televisión en una nueva y mortífera serie escrita por el productor ejecutivo y creador Don Mancini, quien escribió la icónica franquicia de películas. Cuando el solitario adolescente Jake Webber (Zackary Arthur) descubre un antiguo “muñeco buen chico” en una venta de garaje, un tranquilo pueblo americano pronto experimenta el caos cuando una escalofriante y sangrienta ola de asesinatos rocía a todos en sus más profundos y oscuros secretos. Mientras Chucky (con la voz de Brad Dourif) desata el caos, regresan caras conocidas de su pasado y amenazan con revelar sus oscuros orígenes como un aparentemente niño ordinario, quien de alguna forma se convirtió en un legendario muñeco homicida.

 

4 CAPÍTULOS DISPONIBLES

Ficha técnica

Video trailer de la película

Enlaces de descarga

Rip de Bluray

Descargar Chucky (2023) Temporada 3 WEB-DL 1080p Latino




Aportes de DPeliculasHDmega la pass es:dpeliculashdmega.org Aportes de CinemaniaHD la pass es:cinemaniahdd.com Aportes recientes:cinemaniahdd.net
Guardado en : Crimen , Drama , Sci-Fi & Fantasy , Series

Películas relacionadas

descargar Chucky (2023) Temporada 3 WEB-DL 1080p Latino 1080p 1080p gratis, Chucky (2023) Temporada 3 WEB-DL 1080p Latino 1080p mega 1 link, Chucky (2023) Temporada 3 WEB-DL 1080p Latino 1080p serie completa, descargar Chucky (2023) Temporada 3 WEB-DL 1080p Latino 1080p gratis en mega.

Chucky (2023) Temporada 3 WEB-DL 1080p Latino pelicula full hd, Chucky (2023) Temporada 3 WEB-DL 1080p Latino mega latino, Chucky (2023) Temporada 3 WEB-DL 1080p Latino 4k latino, Chucky (2023) Temporada 3 WEB-DL 1080p Latino pelicula completa, Chucky (2023) Temporada 3 WEB-DL 1080p Latino descargar gratis, descargar Chucky (2023) Temporada 3 WEB-DL 1080p Latino pelicula latino, Chucky (2023) Temporada 3 WEB-DL 1080p Latino 1 link mega, Chucky (2023) Temporada 3 WEB-DL 1080p Latino 1 link google drive, Chucky (2023) Temporada 3 WEB-DL 1080p Latino hd 1080p latino.
Comentarios 0