×

¿Problemas para descargar con Mozilla, EDGE? Deshabilita la opción "Abrir vinculos en una pestaña nueva" tal como lo muestra ésta imagen.

Juego De Tronos (2011-2019) Serie Completa REMUX 1080p Latino – CMHDD

852 vistas

Información de Juego De Tronos (2011-2019) Serie Completa REMUX 1080p Latino – CMHDD

Datos de la película

  • Calidad: Full 1080p
  • Audio: Se especifica abajo de la Sinopsis
  • Subtitulos: Español Latino PGS
  • Resolución: 1920x1080p
  • Formato: MKV
  • Codec: H.264
  • Encoder: Dracarys
  • Mediainfo: Clic para Mostrar Datos Ver
  • Format                      : Matroska
    Format version              : Version 4
    File size                   : 11.5 GiB
    Duration                    : 1 h 1 min
    Overall bit rate mode       : Variable
    Overall bit rate            : 26.7 Mb/s
    Movie name                  : Juego De Tronos [S1E01] (2011) REMUX 1080p Latino - CMHDD
    Encoded date                : UTC 2020-11-10 18:30:38
    Writing application         : mkvmerge v51.0.0 ('I Wish') 64-bit
    Writing library             : libebml v1.4.0 + libmatroska v1.6.2

    Video
    ID                          : 1
    Format                      : AVC
    Format/Info                 : Advanced Video Codec
    Format profile              : High@L4.1
    Format settings             : CABAC / 4 Ref Frames
    Format settings, CABAC      : Yes
    Format settings, Reference  : 4 frames
    Codec ID                    : V_MPEG4/ISO/AVC
    Duration                    : 1 h 1 min
    Bit rate mode               : Variable
    Bit rate                    : 19.9 Mb/s
    Maximum bit rate            : 34.0 Mb/s
    Width                       : 1 920 pixels
    Height                      : 1 080 pixels
    Display aspect ratio        : 16:9
    Frame rate mode             : Constant
    Frame rate                  : 23.976 (24000/1001) FPS
    Color space                 : YUV
    Chroma subsampling          : 4:2:0
    Bit depth                   : 8 bits
    Scan type                   : Progressive
    Bits/(Pixel*Frame)          : 0.400
    Stream size                 : 8.56 GiB (75%)
    Default                     : Yes
    Forced                      : No

    Audio #1
    ID                          : 2
    Format                      : DTS
    Format/Info                 : Digital Theater Systems
    Codec ID                    : A_DTS
    Duration                    : 1 h 1 min
    Bit rate mode               : Constant
    Bit rate                    : 768 kb/s
    Channel(s)                  : 2 channels
    Channel layout              : Lt Rt
    Sampling rate               : 48.0 kHz
    Frame rate                  : 93.750 FPS (512 SPF)
    Bit depth                   : 24 bits
    Compression mode            : Lossy
    Delay relative to video     : 2 s 0 ms
    Stream size                 : 338 MiB (3%)
    Language                    : Spanish
    Default                     : Yes
    Forced                      : No

    Audio #2
    ID                          : 3
    Format                      : AC-3
    Format/Info                 : Audio Coding 3
    Commercial name             : Dolby Digital
    Codec ID                    : A_AC3
    Duration                    : 1 h 1 min
    Bit rate mode               : Constant
    Bit rate                    : 256 kb/s
    Channel(s)                  : 2 channels
    Channel layout              : L R
    Sampling rate               : 48.0 kHz
    Frame rate                  : 31.250 FPS (1536 SPF)
    Compression mode            : Lossy
    Stream size                 : 113 MiB (1%)
    Language                    : Spanish
    Service kind                : Complete Main
    Default                     : No
    Forced                      : No

    Audio #3
    ID                          : 4
    Format                      : AC-3
    Format/Info                 : Audio Coding 3
    Commercial name             : Dolby Digital
    Codec ID                    : A_AC3
    Duration                    : 1 h 1 min
    Bit rate mode               : Constant
    Bit rate                    : 640 kb/s
    Channel(s)                  : 6 channels
    Channel layout              : L R C LFE Ls Rs
    Sampling rate               : 48.0 kHz
    Frame rate                  : 31.250 FPS (1536 SPF)
    Compression mode            : Lossy
    Stream size                 : 282 MiB (2%)
    Language                    : English
    Service kind                : Complete Main
    Default                     : No
    Forced                      : No

    Audio #4
    ID                          : 5
    Format                      : MLP FBA 16-ch
    Format/Info                 : Meridian Lossless Packing FBA with 16-channel presentation
    Commercial name             : Dolby TrueHD with Dolby Atmos
    Codec ID                    : A_TRUEHD
    Duration                    : 1 h 1 min
    Bit rate mode               : Variable
    Bit rate                    : 5 057 kb/s
    Maximum bit rate            : 7 887 kb/s
    Channel(s)                  : 8 channels
    Channel layout              : L R C LFE Ls Rs Lb Rb
    Sampling rate               : 48.0 kHz
    Frame rate                  : 1 200.000 FPS (40 SPF)
    Compression mode            : Lossless
    Stream size                 : 2.18 GiB (19%)
    Language                    : English
    Default                     : No
    Forced                      : No
    Number of dynamic objects   : 11
    Bed channel count           : 1 channel
    Bed channel configuration   : LFE

    Text
    ID                          : 6
    Format                      : PGS
    Muxing mode                 : zlib
    Codec ID                    : S_HDMV/PGS
    Codec ID/Info               : Picture based subtitle format used on BDs/HD-DVDs
    Duration                    : 58 min 29 s
    Bit rate                    : 31.8 kb/s
    Count of elements           : 1104
    Stream size                 : 13.3 MiB (0%)
    Language                    : Spanish
    Default                     : Yes
    Forced                      : No

  • Peso: 757 GiB Total

Sinopsis

En una tierra donde los veranos duran décadas y los inviernos pueden durar toda una vida, los problemas acechan. Desde las maquinaciones del sur a las salvajes tierras del este, pasando por el helado norte y el milenario muro que protege el reino de las fuerzas tenebrosas, dos poderosas familias mantienen un enfrentamiento letal por gobernar los Siete Reinos de Poniente. Mientras la traición, la lujuria y las fuerzas sobrenaturales sacuden los pilares de los reinos, la sangrienta batalla por el trono de Hierro tendrá consecuencias imprevistas y trascendentales. El invierno se acerca. Que empiece ‘Juego de tronos’.

 

 

Latino: DTS+AC3 2.0  –  Ingles: TrueHD 7.1+AC3 5.1

Ficha técnica

Video trailer de la película

Enlaces de descarga

Rip de Bluray

Descargar Juego De Tronos (2011-2019) Serie Completa REMUX 1080p Latino – CMHDD


Aportes de DPeliculasHDmega la pass es:dpeliculashdmega.org Aportes de CinemaniaHD la pass es:cinemaniahdd.com

Películas relacionadas

descargar Juego De Tronos (2011-2019) Serie Completa REMUX 1080p Latino – CMHDD Full 1080p 1080p gratis, Juego De Tronos (2011-2019) Serie Completa REMUX 1080p Latino – CMHDD Full 1080p mega 1 link, Juego De Tronos (2011-2019) Serie Completa REMUX 1080p Latino – CMHDD Full 1080p pelicula completa, descargar Juego De Tronos (2011-2019) Serie Completa REMUX 1080p Latino – CMHDD Full 1080p gratis en mega.

Juego De Tronos (2011-2019) Serie Completa REMUX 1080p Latino – CMHDD pelicula full hd, Juego De Tronos (2011-2019) Serie Completa REMUX 1080p Latino – CMHDD mega latino, Juego De Tronos (2011-2019) Serie Completa REMUX 1080p Latino – CMHDD 4k latino, Juego De Tronos (2011-2019) Serie Completa REMUX 1080p Latino – CMHDD pelicula completa, Juego De Tronos (2011-2019) Serie Completa REMUX 1080p Latino – CMHDD descargar gratis, descargar Juego De Tronos (2011-2019) Serie Completa REMUX 1080p Latino – CMHDD pelicula latino, Juego De Tronos (2011-2019) Serie Completa REMUX 1080p Latino – CMHDD 1 link mega, Juego De Tronos (2011-2019) Serie Completa REMUX 1080p Latino – CMHDD 1 link google drive, Juego De Tronos (2011-2019) Serie Completa REMUX 1080p Latino – CMHDD hd 1080p latino.
Comentarios 0