×

¿Problemas para descargar con Mozilla, EDGE? Deshabilita la opción "Abrir vinculos en una pestaña nueva" tal como lo muestra ésta imagen.

A Private War (2018) Full 1080p Latino

2.251 vistas

Información de A Private War (2018) Full 1080p Latino

Datos de la película

  • Calidad: Full 1080p
  • Audio: Se especifica abajo de la Sinopsis
  • Subtitulos: Español Latino PGS - Ingles PGS
  • Resolución: 1920x1080p
  • Formato: MKV
  • Codec: H.264
  • Encoder: CinefiloCool
  • Mediainfo: Clic para Mostrar Datos Ver
  • A Private War (2018) Full 1080p Latino-CMHDD.mkv
    Format                      : Matroska
    Format version              : Version 4
    File size                   : 6.13 GiB
    Duration                    : 1 h 50 min
    Overall bit rate            : 7 934 kb/s
    Movie name                  : CinemaniaHDD.Net
    Encoded date                : UTC 2019-11-08 03:49:04
    Writing application         : mkvmerge v38.0.0 ('The Silent Type') 64-bit
    Writing library             : libebml v1.3.9 + libmatroska v1.5.2
    Attachments                 : CINEMANIAHD.png

    Video
    ID                          : 1
    Format                      : AVC
    Format/Info                 : Advanced Video Codec
    Format profile              : High@L4.1
    Format settings             : CABAC / 4 Ref Frames
    Format settings, CABAC      : Yes
    Format settings, ReFrames   : 4 frames
    Codec ID                    : V_MPEG4/ISO/AVC
    Duration                    : 1 h 50 min
    Bit rate                    : 6 147 kb/s
    Width                       : 1 920 pixels
    Height                      : 1 080 pixels
    Display aspect ratio        : 16:9
    Frame rate mode             : Constant
    Frame rate                  : 23.976 (24000/1001) FPS
    Color space                 : YUV
    Chroma subsampling          : 4:2:0
    Bit depth                   : 8 bits
    Scan type                   : Progressive
    Bits/(Pixel*Frame)          : 0.124
    Stream size                 : 4.75 GiB (77%)
    Title                       : Full HD1080p [Bluray]
    Writing library             : x264 core 157 r2935 545de2f
    Encoding settings           : cabac=1 / ref=4 / deblock=1:0:0 / analyse=0x3:0x133 / me=tesa / subme=11 / psy=1 / psy_rd=1.00:0.00 / mixed_ref=1 / me_range=24 / chroma_me=1 / trellis=2 / 8x8dct=1 / cqm=0 / deadzone=21,11 / fast_pskip=0 / chroma_qp_offset=-2 / threads=34 / lookahead_threads=8 / sliced_threads=0 / nr=0 / decimate=1 / interlaced=0 / bluray_compat=0 / constrained_intra=0 / bframes=16 / b_pyramid=2 / b_adapt=2 / b_bias=0 / direct=3 / weightb=1 / open_gop=0 / weightp=2 / keyint=240 / keyint_min=24 / scenecut=40 / intra_refresh=0 / rc_lookahead=60 / rc=crf / mbtree=1 / crf=20.0 / qcomp=0.60 / qpmin=0 / qpmax=69 / qpstep=4 / vbv_maxrate=62500 / vbv_bufsize=78125 / crf_max=0.0 / nal_hrd=none / filler=0 / ip_ratio=1.40 / aq=1:1.00
    Default                     : Yes
    Forced                      : No
    Color range                 : Limited
    Color primaries             : BT.709
    Transfer characteristics    : BT.709
    Matrix coefficients         : BT.709

    Audio #1
    ID                          : 2
    Format                      : AC-3
    Format/Info                 : Audio Coding 3
    Commercial name             : Dolby Digital
    Codec ID                    : A_AC3
    Duration                    : 1 h 50 min
    Bit rate mode               : Constant
    Bit rate                    : 256 kb/s
    Channel(s)                  : 2 channels
    Channel layout              : L R
    Sampling rate               : 48.0 kHz
    Frame rate                  : 31.250 FPS (1536 SPF)
    Bit depth                   : 16 bits
    Compression mode            : Lossy
    Stream size                 : 202 MiB (3%)
    Title                       : AC3_2.0_Capt_Esp
    Language                    : Spanish
    Service kind                : Complete Main
    Default                     : Yes
    Forced                      : Yes

    Audio #2
    ID                          : 3
    Format                      : DTS
    Format/Info                 : Digital Theater Systems
    Codec ID                    : A_DTS
    Duration                    : 1 h 50 min
    Bit rate mode               : Constant
    Bit rate                    : 1 509 kb/s
    Channel(s)                  : 6 channels
    Channel layout              : C L R Ls Rs LFE
    Sampling rate               : 48.0 kHz
    Frame rate                  : 93.750 FPS (512 SPF)
    Bit depth                   : 24 bits
    Compression mode            : Lossy
    Stream size                 : 1.17 GiB (19%)
    Title                       : DTS_5.1_Bluray_Eng
    Language                    : English
    Default                     : No
    Forced                      : No

    Text #1
    ID                          : 4
    Format                      : PGS
    Muxing mode                 : zlib
    Codec ID                    : S_HDMV/PGS
    Codec ID/Info               : Picture based subtitle format used on BDs/HD-DVDs
    Duration                    : 1 h 49 min
    Bit rate                    : 28.6 kb/s
    Count of elements           : 2118
    Stream size                 : 22.4 MiB (0%)
    Title                       : Sub_Esp [PGS]
    Language                    : Spanish
    Default                     : No
    Forced                      : No

    Text #2
    ID                          : 5
    Format                      : PGS
    Muxing mode                 : zlib
    Codec ID                    : S_HDMV/PGS
    Codec ID/Info               : Picture based subtitle format used on BDs/HD-DVDs
    Duration                    : 1 h 46 min
    Bit rate                    : 36.5 kb/s
    Count of elements           : 2621
    Stream size                 : 27.9 MiB (0%)
    Title                       : Sub_Eng [PGS]
    Language                    : English
    Default                     : No
    Forced                      : No

    Text #3
    ID                          : 6
    Format                      : UTF-8
    Codec ID                    : S_TEXT/UTF8
    Codec ID/Info               : UTF-8 Plain Text
    Duration                    : 1 h 49 min
    Bit rate                    : 46 b/s
    Count of elements           : 1058
    Stream size                 : 37.0 KiB (0%)
    Title                       : Sub_Esp
    Language                    : Spanish
    Default                     : No
    Forced                      : No

    Menu
    00:00:00.000                : :Chapter 1
    00:05:16.274                : :Chapter 2
    00:11:12.630                : :Chapter 3
    00:17:24.669                : :Chapter 4
    00:22:27.304                : :Chapter 5
    00:30:38.045                : :Chapter 6
    00:36:41.241                : :Chapter 7
    00:39:07.136                : :Chapter 8
    00:47:09.910                : :Chapter 9
    00:51:01.267                : :Chapter 10
    00:56:59.166                : :Chapter 11
    01:02:05.180                : :Chapter 12
    01:06:14.220                : :Chapter 13
    01:11:58.356                : :Chapter 14
    01:16:49.105                : :Chapter 15
    01:21:28.759                : :Chapter 16
    01:25:16.737                : :Chapter 17
    01:30:06.902                : :Chapter 18
    01:37:45.902                : :Chapter 19
    01:42:54.335                : :Chapter 20

  • Peso: 6.13 GiB

Sinopsis

Descargar A Private War (2018) Full 1080p Latino, Mega, Google Drive. Marie Colvin (Rosamund Pike) fue una periodista reconocida mundialmente por su trabajo en distintos conflictos bélicos. Testigo de algunas cruentas batallas recientes, especialmente de lo sucedido en Oriente Medio, Colvin contaba con el respeto tanto de los lectores como de sus compañeros de profesión por su enorme valentía y humildad. Sin embargo, su personalidad era caótica y autodestructiva: abusaba del alcohol y su vida personal era, un auténtico desastre. Tras recibir el impacto de una granada en Sri Lanka, comienza a llevar un distintivo parche en el ojo mientras se sienta a tomar martinis rodeada de la alta sociedad londinense a la que tanto aborrece, hasta que un día recibe el más peligroso de todos los encargos, que acepta junto a su también prestigioso fotógrafo de guerra, Paul Conroy (Jamie Dornan). Juntos viajan a Siria para cubrir lo que sucede en la ciudad de Homs, donde aprenderá el verdadero coste de la guerra, tanto física como psicológicamente.

Audio Español Latino AC3 2.0 Capturado – Ingles DTS 5.1 Bluray

Nota: Actualizado con Audio Latino

Ficha técnica

Video trailer de la película

Enlaces de descarga

Rip de Bluray

Descargar A Private War (2018) Full 1080p Latino




Aportes de DPeliculasHDmega la pass es:dpeliculashdmega.org Aportes de CinemaniaHD la pass es:cinemaniahdd.com

Películas relacionadas

descargar A Private War (2018) Full 1080p Latino Full 1080p 1080p gratis, A Private War (2018) Full 1080p Latino Full 1080p mega 1 link, A Private War (2018) Full 1080p Latino Full 1080p pelicula completa, descargar A Private War (2018) Full 1080p Latino Full 1080p gratis en mega.

A Private War (2018) Full 1080p Latino pelicula full hd, A Private War (2018) Full 1080p Latino mega latino, A Private War (2018) Full 1080p Latino 4k latino, A Private War (2018) Full 1080p Latino pelicula completa, A Private War (2018) Full 1080p Latino descargar gratis, descargar A Private War (2018) Full 1080p Latino pelicula latino, A Private War (2018) Full 1080p Latino 1 link mega, A Private War (2018) Full 1080p Latino 1 link google drive, A Private War (2018) Full 1080p Latino hd 1080p latino.
Comentarios 0