×

¿Problemas para descargar con Mozilla, EDGE? Deshabilita la opción "Abrir vinculos en una pestaña nueva" tal como lo muestra ésta imagen.

The Dark Knight Rises (2012) REMUX 4K [IMAX] HDR Latino – CMHDD

343 vistas

Información de The Dark Knight Rises (2012) REMUX 4K [IMAX] HDR Latino – CMHDD

Datos de la película

  • Calidad: 4K HDR
  • Audio: Español Latino AC3 5.1 BLURAY - Ingles DTS 5.1 BLURAY
  • Subtitulos: Español Latino PGS
  • Resolución: 3840x2160p
  • Formato: MKV
  • Codec: H.264
  • Encoder: Dracarys
  • Mediainfo: Clic para Mostrar Datos Ver
  • Format                      : Matroska
    Format version              : Version 4
    File size                   : 69.3 GiB
    Duration                    : 2 h 44 min
    Overall bit rate mode       : Variable
    Overall bit rate            : 60.3 Mb/s
    Movie name                  : The Dark Knight Rises (2012) REMUX 4K HDR Latino - CMHDD
    Encoded date                : UTC 2021-03-30 03:25:13
    Writing application         : mkvmerge v51.0.0 ('I Wish') 64-bit
    Writing library             : libebml v1.4.0 + libmatroska v1.6.2

    Video
    ID                          : 1
    ID in the original source m : 4113 (0x1011)
    Format                      : HEVC
    Format/Info                 : High Efficiency Video Coding
    Format profile              : Main 10@L5.1@High
    HDR format                  : SMPTE ST 2086, HDR10 compatible
    Codec ID                    : V_MPEGH/ISO/HEVC
    Duration                    : 2 h 44 min
    Bit rate                    : 55.8 Mb/s
    Width                       : 3 840 pixels
    Height                      : 2 160 pixels
    Display aspect ratio        : 16:9
    Frame rate mode             : Constant
    Frame rate                  : 23.976 (24000/1001) FPS
    Color space                 : YUV
    Chroma subsampling          : 4:2:0 (Type 2)
    Bit depth                   : 10 bits
    Bits/(Pixel*Frame)          : 0.281
    Stream size                 : 64.1 GiB (93%)
    Default                     : Yes
    Forced                      : No
    Color range                 : Limited
    Color primaries             : BT.2020
    Transfer characteristics    : PQ
    Matrix coefficients         : BT.2020 non-constant
    Mastering display color pri : Display P3
    Mastering display luminance : min: 0.0050 cd/m2, max: 4000 cd/m2
    Maximum Content Light Level : 500 cd/m2
    Maximum Frame-Average Light : 200 cd/m2
    Original source medium      : Blu-ray

    Audio #1
    ID                          : 2
    Format                      : AC-3
    Format/Info                 : Audio Coding 3
    Commercial name             : Dolby Digital
    Codec ID                    : A_AC3
    Duration                    : 2 h 44 min
    Bit rate mode               : Constant
    Bit rate                    : 448 kb/s
    Channel(s)                  : 6 channels
    Channel layout              : L R C LFE Ls Rs
    Sampling rate               : 48.0 kHz
    Frame rate                  : 31.250 FPS (1536 SPF)
    Compression mode            : Lossy
    Stream size                 : 527 MiB (1%)
    Language                    : Spanish
    Service kind                : Complete Main
    Default                     : Yes
    Forced                      : No

    Audio #2
    ID                          : 3
    ID in the original source m : 4352 (0x1100)
    Format                      : DTS XLL
    Format/Info                 : Digital Theater Systems
    Commercial name             : DTS-HD Master Audio
    Codec ID                    : A_DTS
    Duration                    : 2 h 44 min
    Bit rate mode               : Variable
    Bit rate                    : 4 037 kb/s
    Channel(s)                  : 6 channels
    Channel layout              : C L R Ls Rs LFE
    Sampling rate               : 48.0 kHz
    Frame rate                  : 93.750 FPS (512 SPF)
    Bit depth                   : 24 bits
    Compression mode            : Lossless
    Stream size                 : 4.64 GiB (7%)
    Language                    : English
    Default                     : No
    Forced                      : No
    Original source medium      : Blu-ray

    Text #1
    ID                          : 4
    Format                      : UTF-8
    Codec ID                    : S_TEXT/UTF8
    Codec ID/Info               : UTF-8 Plain Text
    Duration                    : 1 h 56 min
    Bit rate                    : 0 b/s
    Count of elements           : 6
    Stream size                 : 199 Bytes (0%)
    Language                    : Spanish
    Default                     : No
    Forced                      : No

    Text #2
    ID                          : 5
    Format                      : UTF-8
    Codec ID                    : S_TEXT/UTF8
    Codec ID/Info               : UTF-8 Plain Text
    Duration                    : 2 h 43 min
    Bit rate                    : 52 b/s
    Count of elements           : 1882
    Stream size                 : 62.8 KiB (0%)
    Language                    : Spanish
    Default                     : No
    Forced                      : No

    Text #3
    ID                          : 6
    Format                      : PGS
    Muxing mode                 : zlib
    Codec ID                    : S_HDMV/PGS
    Codec ID/Info               : Picture based subtitle format used on BDs/HD-DVDs
    Duration                    : 2 h 43 min
    Bit rate                    : 29.8 kb/s
    Count of elements           : 3764
    Stream size                 : 34.8 MiB (0%)
    Language                    : Spanish
    Default                     : No
    Forced                      : No

    Menu
    00:00:00.000                : en:Chapter 01
    00:09:02.792                : en:Chapter 02
    00:19:08.480                : en:Chapter 03
    00:30:15.814                : en:Chapter 04
    00:41:08.757                : en:Chapter 05
    00:51:09.483                : en:Chapter 06
    01:00:29.626                : en:Chapter 07
    01:10:03.991                : en:Chapter 08
    01:20:13.433                : en:Chapter 09
    01:31:00.538                : en:Chapter 10
    01:39:24.249                : en:Chapter 11
    01:48:58.448                : en:Chapter 12
    02:00:21.547                : en:Chapter 13
    02:10:47.631                : en:Chapter 14
    02:19:12.594                : en:Chapter 15
    02:30:14.588                : en:Chapter 16
    02:36:50.526                : en:Chapter 17

  • Peso: 69.3 GiB

Sinopsis

Hace ocho años que Batman desapareció, dejando de ser un héroe para convertirse en un fugitivo. Al asumir la culpa por la muerte del fiscal del distrito Harvey Dent, el Caballero Oscuro decidió sacrificarlo todo por lo que consideraba, al igual que el Comisario Gordon, un bien mayor. La mentira funciona durante un tiempo, ya que la actividad criminal de la ciudad de Gotham se ve aplacada gracias a la dura Ley Dent. Pero todo cambia con la llegada de una astuta gata ladrona que pretende llevar a cabo un misterioso plan. Sin embargo, mucho más peligrosa es la aparición en escena de Bane, un terrorista enmascarado cuyos despiadados planes obligan a Bruce a regresar de su voluntario exilio.

Ficha técnica

Video trailer de la película

Enlaces de descarga

Rip de Bluray

Descargar The Dark Knight Rises (2012) REMUX 4K [IMAX] HDR Latino – CMHDD


Aportes de DPeliculasHDmega la pass es:dpeliculashdmega.org Aportes de CinemaniaHD la pass es:cinemaniahdd.com
Guardado en : Acción , Crimen , Drama , Suspenso

Películas relacionadas

  • Paradise Highway (2022) HD 1080p Latino

    Paradise Highway (2022) HD 1080p Latino

    2022
    Paradise Highway (2022) HD 1080p Latino

    1h 55m 2022

    Descargar Paradise Highway (2022) HD 1080p Latino. Un camionero se ha visto obligado a pasar de contrabando...

    Director: Anna Gutto

    Género: Crimen

    Actores: Xavier Scott Evans

  • Paradise Highway (2022) PLACEBO Full HD 1080p Latino

    Paradise Highway (2022) PLACEBO Full HD 1080p Latino

    2022
    Paradise Highway (2022) PLACEBO Full HD 1080p Latino

    1h 55m 2022

    Descargar Paradise Highway (2022) PLACEBO Full HD 1080p Latino. Un camionero se ha visto obligado a pasar...

    Director: Anna Gutto

    Género: Crimen

    Actores: Xavier Scott Evans

  • Paradise Highway (2022) REMUX 1080p Latino

    Paradise Highway (2022) REMUX 1080p Latino

    2022
    Paradise Highway (2022) REMUX 1080p Latino

    1h 55m 2022

    Descargar Paradise Highway (2022) REMUX 1080p Latino. Un camionero se ha visto obligado a pasar de contrabando...

    Director: Anna Gutto

    Género: Crimen

    Actores: Xavier Scott Evans

descargar The Dark Knight Rises (2012) REMUX 4K [IMAX] HDR Latino – CMHDD 4K HDR 1080p gratis, The Dark Knight Rises (2012) REMUX 4K [IMAX] HDR Latino – CMHDD 4K HDR mega 1 link, The Dark Knight Rises (2012) REMUX 4K [IMAX] HDR Latino – CMHDD 4K HDR pelicula completa, descargar The Dark Knight Rises (2012) REMUX 4K [IMAX] HDR Latino – CMHDD 4K HDR gratis en mega.

The Dark Knight Rises (2012) REMUX 4K [IMAX] HDR Latino – CMHDD pelicula full hd, The Dark Knight Rises (2012) REMUX 4K [IMAX] HDR Latino – CMHDD mega latino, The Dark Knight Rises (2012) REMUX 4K [IMAX] HDR Latino – CMHDD 4k latino, The Dark Knight Rises (2012) REMUX 4K [IMAX] HDR Latino – CMHDD pelicula completa, The Dark Knight Rises (2012) REMUX 4K [IMAX] HDR Latino – CMHDD descargar gratis, descargar The Dark Knight Rises (2012) REMUX 4K [IMAX] HDR Latino – CMHDD pelicula latino, The Dark Knight Rises (2012) REMUX 4K [IMAX] HDR Latino – CMHDD 1 link mega, The Dark Knight Rises (2012) REMUX 4K [IMAX] HDR Latino – CMHDD 1 link google drive, The Dark Knight Rises (2012) REMUX 4K [IMAX] HDR Latino – CMHDD hd 1080p latino.
Comentarios 0