×

¿Problemas para descargar con Mozilla, EDGE? Deshabilita la opción "Abrir vinculos en una pestaña nueva" tal como lo muestra ésta imagen.

The Dark Knight (2008) REMUX 4K [IMAX] HDR Latino – CMHDD

426 vistas

Información de The Dark Knight (2008) REMUX 4K [IMAX] HDR Latino – CMHDD

Datos de la película

  • Calidad: 4K HDR
  • Audio: Español Latino AC3 5.1 BLURAY - Ingles DTS 5.1 BLURAY
  • Subtitulos: Español Latino PGS
  • Resolución: 3840x2160p
  • Formato: MKV
  • Codec: H.264
  • Encoder: Dracarys
  • Mediainfo: Clic para Mostrar Datos Ver
  • Format                      : Matroska
    Format version              : Version 4
    File size                   : 54.9 GiB
    Duration                    : 2 h 32 min
    Overall bit rate mode       : Variable
    Overall bit rate            : 51.6 Mb/s
    Movie name                  : The Dark Knight (2008) REMUX 4K HDR Latino - CMHDD
    Encoded date                : UTC 2021-03-30 02:46:59
    Writing application         : mkvmerge v51.0.0 ('I Wish') 64-bit
    Writing library             : libebml v1.4.0 + libmatroska v1.6.2

    Video
    ID                          : 1
    ID in the original source m : 4113 (0x1011)
    Format                      : HEVC
    Format/Info                 : High Efficiency Video Coding
    Format profile              : Main 10@L5.1@High
    HDR format                  : SMPTE ST 2086, HDR10 compatible
    Codec ID                    : V_MPEGH/ISO/HEVC
    Duration                    : 2 h 32 min
    Bit rate                    : 47.2 Mb/s
    Width                       : 3 840 pixels
    Height                      : 2 160 pixels
    Display aspect ratio        : 16:9
    Frame rate mode             : Constant
    Frame rate                  : 23.976 (24000/1001) FPS
    Color space                 : YUV
    Chroma subsampling          : 4:2:0 (Type 2)
    Bit depth                   : 10 bits
    Bits/(Pixel*Frame)          : 0.237
    Stream size                 : 50.1 GiB (91%)
    Default                     : Yes
    Forced                      : No
    Color range                 : Limited
    Color primaries             : BT.2020
    Transfer characteristics    : PQ
    Matrix coefficients         : BT.2020 non-constant
    Mastering display color pri : Display P3
    Mastering display luminance : min: 0.0050 cd/m2, max: 4000 cd/m2
    Maximum Content Light Level : 500 cd/m2
    Maximum Frame-Average Light : 200 cd/m2
    Original source medium      : Blu-ray

    Audio #1
    ID                          : 2
    Format                      : AC-3
    Format/Info                 : Audio Coding 3
    Commercial name             : Dolby Digital
    Codec ID                    : A_AC3
    Duration                    : 2 h 32 min
    Bit rate mode               : Constant
    Bit rate                    : 640 kb/s
    Channel(s)                  : 6 channels
    Channel layout              : L R C LFE Ls Rs
    Sampling rate               : 48.0 kHz
    Frame rate                  : 31.250 FPS (1536 SPF)
    Compression mode            : Lossy
    Stream size                 : 697 MiB (1%)
    Language                    : Spanish
    Service kind                : Complete Main
    Default                     : Yes
    Forced                      : No

    Audio #2
    ID                          : 3
    ID in the original source m : 4352 (0x1100)
    Format                      : DTS XLL
    Format/Info                 : Digital Theater Systems
    Commercial name             : DTS-HD Master Audio
    Codec ID                    : A_DTS
    Duration                    : 2 h 32 min
    Bit rate mode               : Variable
    Bit rate                    : 3 814 kb/s
    Channel(s)                  : 6 channels
    Channel layout              : C L R Ls Rs LFE
    Sampling rate               : 48.0 kHz
    Frame rate                  : 93.750 FPS (512 SPF)
    Bit depth                   : 24 bits
    Compression mode            : Lossless
    Stream size                 : 4.06 GiB (7%)
    Language                    : English
    Default                     : No
    Forced                      : No
    Original source medium      : Blu-ray

    Text #1
    ID                          : 4
    Format                      : UTF-8
    Codec ID                    : S_TEXT/UTF8
    Codec ID/Info               : UTF-8 Plain Text
    Duration                    : 2 h 17 min
    Bit rate                    : 0 b/s
    Count of elements           : 14
    Stream size                 : 474 Bytes (0%)
    Language                    : Spanish
    Default                     : No
    Forced                      : No

    Text #2
    ID                          : 5
    Format                      : UTF-8
    Codec ID                    : S_TEXT/UTF8
    Codec ID/Info               : UTF-8 Plain Text
    Duration                    : 2 h 30 min
    Bit rate                    : 60 b/s
    Count of elements           : 1943
    Stream size                 : 66.5 KiB (0%)
    Language                    : Spanish
    Default                     : No
    Forced                      : No

    Text #3
    ID                          : 6
    Format                      : PGS
    Muxing mode                 : zlib
    Codec ID                    : S_HDMV/PGS
    Codec ID/Info               : Picture based subtitle format used on BDs/HD-DVDs
    Duration                    : 2 h 30 min
    Bit rate                    : 34.0 kb/s
    Count of elements           : 3886
    Stream size                 : 36.6 MiB (0%)
    Language                    : Spanish
    Default                     : Yes
    Forced                      : No

    Text #4
    ID                          : 7
    Format                      : PGS
    Muxing mode                 : zlib
    Codec ID                    : S_HDMV/PGS
    Codec ID/Info               : Picture based subtitle format used on BDs/HD-DVDs
    Duration                    : 2 h 30 min
    Bit rate                    : 32.8 kb/s
    Count of elements           : 3608
    Stream size                 : 35.2 MiB (0%)
    Language                    : Spanish
    Default                     : No
    Forced                      : No

    Menu
    00:00:00.000                : en:Chapter 01
    00:06:25.927                : en:Chapter 02
    00:10:36.135                : en:Chapter 03
    00:13:52.540                : en:Chapter 04
    00:17:54.156                : en:Chapter 05
    00:21:39.298                : en:Chapter 06
    00:26:09.985                : en:Chapter 07
    00:29:36.232                : en:Chapter 08
    00:31:42.442                : en:Chapter 09
    00:37:49.016                : en:Chapter 10
    00:43:34.028                : en:Chapter 11
    00:46:39.505                : en:Chapter 12
    00:48:57.726                : en:Chapter 13
    00:53:19.404                : en:Chapter 14
    00:57:15.598                : en:Chapter 15
    00:59:26.312                : en:Chapter 16
    01:03:59.544                : en:Chapter 17
    01:08:23.516                : en:Chapter 18
    01:10:48.285                : en:Chapter 19
    01:14:24.877                : en:Chapter 20
    01:18:05.597                : en:Chapter 21
    01:22:22.395                : en:Chapter 22
    01:24:48.541                : en:Chapter 23
    01:30:48.401                : en:Chapter 24
    01:34:04.930                : en:Chapter 25
    01:39:57.741                : en:Chapter 26
    01:42:05.452                : en:Chapter 27
    01:44:59.876                : en:Chapter 28
    01:47:00.831                : en:Chapter 29
    01:51:09.871                : en:Chapter 30
    01:54:14.597                : en:Chapter 31
    01:57:03.975                : en:Chapter 32
    02:00:14.207                : en:Chapter 33
    02:03:37.535                : en:Chapter 34
    02:09:07.573                : en:Chapter 35
    02:12:27.272                : en:Chapter 36
    02:15:22.739                : en:Chapter 37
    02:19:58.640                : en:Chapter 38
    02:24:26.658                : en:Chapter 39

  • Peso: 54.9 GiB

Sinopsis

Batman/Bruce Wayne regresa para continuar su guerra contra el crimen. Con la ayuda del teniente Jim Gordon y del Fiscal del Distrito Harvey Dent, Batman se propone destruir el crimen organizado en la ciudad de Gotham. El triunvirato demuestra su eficacia, pero, de repente, aparece Joker, un nuevo criminal que desencadena el caos y tiene aterrados a los ciudadanos.

Ficha técnica

Video trailer de la película

Enlaces de descarga

Rip de Bluray

Descargar The Dark Knight (2008) REMUX 4K [IMAX] HDR Latino – CMHDD


Aportes de DPeliculasHDmega la pass es:dpeliculashdmega.org Aportes de CinemaniaHD la pass es:cinemaniahdd.com
Guardado en : Acción , Crimen , Drama , Suspenso

Películas relacionadas

  • Paradise Highway (2022) HD 1080p Latino

    Paradise Highway (2022) HD 1080p Latino

    2022
    Paradise Highway (2022) HD 1080p Latino

    1h 55m 2022

    Descargar Paradise Highway (2022) HD 1080p Latino. Un camionero se ha visto obligado a pasar de contrabando...

    Director: Anna Gutto

    Género: Crimen

    Actores: Xavier Scott Evans

  • Paradise Highway (2022) PLACEBO Full HD 1080p Latino

    Paradise Highway (2022) PLACEBO Full HD 1080p Latino

    2022
    Paradise Highway (2022) PLACEBO Full HD 1080p Latino

    1h 55m 2022

    Descargar Paradise Highway (2022) PLACEBO Full HD 1080p Latino. Un camionero se ha visto obligado a pasar...

    Director: Anna Gutto

    Género: Crimen

    Actores: Xavier Scott Evans

  • Paradise Highway (2022) REMUX 1080p Latino

    Paradise Highway (2022) REMUX 1080p Latino

    2022
    Paradise Highway (2022) REMUX 1080p Latino

    1h 55m 2022

    Descargar Paradise Highway (2022) REMUX 1080p Latino. Un camionero se ha visto obligado a pasar de contrabando...

    Director: Anna Gutto

    Género: Crimen

    Actores: Xavier Scott Evans

descargar The Dark Knight (2008) REMUX 4K [IMAX] HDR Latino – CMHDD 4K HDR 1080p gratis, The Dark Knight (2008) REMUX 4K [IMAX] HDR Latino – CMHDD 4K HDR mega 1 link, The Dark Knight (2008) REMUX 4K [IMAX] HDR Latino – CMHDD 4K HDR pelicula completa, descargar The Dark Knight (2008) REMUX 4K [IMAX] HDR Latino – CMHDD 4K HDR gratis en mega.

The Dark Knight (2008) REMUX 4K [IMAX] HDR Latino – CMHDD pelicula full hd, The Dark Knight (2008) REMUX 4K [IMAX] HDR Latino – CMHDD mega latino, The Dark Knight (2008) REMUX 4K [IMAX] HDR Latino – CMHDD 4k latino, The Dark Knight (2008) REMUX 4K [IMAX] HDR Latino – CMHDD pelicula completa, The Dark Knight (2008) REMUX 4K [IMAX] HDR Latino – CMHDD descargar gratis, descargar The Dark Knight (2008) REMUX 4K [IMAX] HDR Latino – CMHDD pelicula latino, The Dark Knight (2008) REMUX 4K [IMAX] HDR Latino – CMHDD 1 link mega, The Dark Knight (2008) REMUX 4K [IMAX] HDR Latino – CMHDD 1 link google drive, The Dark Knight (2008) REMUX 4K [IMAX] HDR Latino – CMHDD hd 1080p latino.
Comentarios 0