×

¿Problemas para descargar con Mozilla, EDGE? Deshabilita la opción "Abrir vinculos en una pestaña nueva" tal como lo muestra ésta imagen.

Superman III (1983) REMUX 4K HDR Latino – CMHDD

212 vistas

Información de Superman III (1983) REMUX 4K HDR Latino – CMHDD

Datos de la película

  • Calidad: 4K HDR
  • Audio: Español Latino AC3 1.0 BLURAY - Ingles AC3 5.1 BLURAY
  • Subtitulos: Español Latino PGS
  • Resolución: 3840x2160p
  • Formato: MKV
  • Codec: H.264
  • Encoder: Dracarys
  • Mediainfo: Clic para Mostrar Datos Ver
  • Format                      : Matroska
    Format version              : Version 4
    File size                   : 51.8 GiB
    Duration                    : 2 h 4 min
    Overall bit rate mode       : Variable
    Overall bit rate            : 59.3 Mb/s
    Movie name                  : Superman III (1983) REMUX 4K HDR Latino - CMHDD
    Encoded date                : UTC 2023-04-25 01:00:16
    Writing application         : mkvmerge v47.0.0 ('Black Flag') 64-bit
    Writing library             : libebml v1.3.10 + libmatroska v1.5.2
    Cover                       : Yes
    Attachments                 : cover.jpg

    Video
    ID                          : 1
    ID in the original source m : 4113 (0x1011)
    Format                      : HEVC
    Format/Info                 : High Efficiency Video Coding
    Format profile              : Main 10@L5.1@High
    HDR format                  : SMPTE ST 2086, HDR10 compatible
    Codec ID                    : V_MPEGH/ISO/HEVC
    Duration                    : 2 h 4 min
    Bit rate                    : 56.6 Mb/s
    Width                       : 3 840 pixels
    Height                      : 2 160 pixels
    Display aspect ratio        : 16:9
    Frame rate mode             : Constant
    Frame rate                  : 23.976 (24000/1001) FPS
    Color space                 : YUV
    Chroma subsampling          : 4:2:0 (Type 2)
    Bit depth                   : 10 bits
    Bits/(Pixel*Frame)          : 0.285
    Stream size                 : 49.4 GiB (95%)
    Default                     : Yes
    Forced                      : No
    Color range                 : Limited
    Color primaries             : BT.2020
    Transfer characteristics    : PQ
    Matrix coefficients         : BT.2020 non-constant
    Mastering display color pri : Display P3
    Mastering display luminance : min: 0.0001 cd/m2, max: 1000 cd/m2
    Maximum Content Light Level : 3257 cd/m2
    Maximum Frame-Average Light : 358 cd/m2
    Original source medium      : Blu-ray

    Audio #1
    ID                          : 2
    ID in the original source m : 4352 (0x1100)
    Format                      : AC-3
    Format/Info                 : Audio Coding 3
    Commercial name             : Dolby Digital
    Codec ID                    : A_AC3
    Duration                    : 2 h 4 min
    Bit rate mode               : Constant
    Bit rate                    : 448 kb/s
    Channel(s)                  : 6 channels
    Channel layout              : L R C LFE Ls Rs
    Sampling rate               : 48.0 kHz
    Frame rate                  : 31.250 FPS (1536 SPF)
    Compression mode            : Lossy
    Stream size                 : 400 MiB (1%)
    Language                    : English
    Service kind                : Complete Main
    Default                     : No
    Forced                      : No
    Original source medium      : Blu-ray

    Audio #2
    ID                          : 3
    ID in the original source m : 4353 (0x1101)
    Format                      : DTS XLL
    Format/Info                 : Digital Theater Systems
    Commercial name             : DTS-HD Master Audio
    Codec ID                    : A_DTS
    Duration                    : 2 h 4 min
    Bit rate mode               : Variable
    Bit rate                    : 2 090 kb/s
    Channel(s)                  : 2 channels
    Sampling rate               : 48.0 kHz
    Frame rate                  : 93.750 FPS (512 SPF)
    Bit depth                   : 24 bits
    Compression mode            : Lossless
    Stream size                 : 1.82 GiB (4%)
    Language                    : English
    Default                     : No
    Forced                      : No
    Original source medium      : Blu-ray

    Audio #3
    ID                          : 4
    ID in the original source m : 4358 (0x1106)
    Format                      : AC-3
    Format/Info                 : Audio Coding 3
    Commercial name             : Dolby Digital
    Codec ID                    : A_AC3
    Duration                    : 2 h 4 min
    Bit rate mode               : Constant
    Bit rate                    : 192 kb/s
    Channel(s)                  : 1 channel
    Channel layout              : C
    Sampling rate               : 48.0 kHz
    Frame rate                  : 31.250 FPS (1536 SPF)
    Compression mode            : Lossy
    Delay relative to video     : 23 ms
    Stream size                 : 172 MiB (0%)
    Language                    : Spanish
    Service kind                : Complete Main
    Default                     : Yes
    Forced                      : No
    Original source medium      : Blu-ray

    Text #1
    ID                          : 5
    ID in the original source m : 4775 (0x12A7)
    Format                      : PGS
    Muxing mode                 : zlib
    Codec ID                    : S_HDMV/PGS
    Codec ID/Info               : Picture based subtitle format used on BDs/HD-DVDs
    Duration                    : 1 h 59 min
    Bit rate                    : 27.4 kb/s
    Frame rate                  : 0.366 FPS
    Count of elements           : 2628
    Stream size                 : 23.4 MiB (0%)
    Language                    : Spanish
    Default                     : No
    Forced                      : No
    Original source medium      : Blu-ray

    Text #2
    ID                          : 6
    ID in the original source m : 4784 (0x12B0)
    Format                      : PGS
    Muxing mode                 : zlib
    Codec ID                    : S_HDMV/PGS
    Codec ID/Info               : Picture based subtitle format used on BDs/HD-DVDs
    Duration                    : 1 h 31 min
    Bit rate                    : 219 b/s
    Frame rate                  : 0.003 FPS
    Count of elements           : 16
    Stream size                 : 148 KiB (0%)
    Language                    : Spanish
    Default                     : No
    Forced                      : No
    Original source medium      : Blu-ray

    Menu
    00:00:00.000                : en:Capítulo 01
    00:02:33.820                : en:Capítulo 02
    00:08:30.009                : en:Capítulo 03
    00:12:05.015                : en:Capítulo 04
    00:14:30.995                : en:Capítulo 05
    00:20:00.157                : en:Capítulo 06
    00:21:53.812                : en:Capítulo 07
    00:26:30.630                : en:Capítulo 08
    00:28:38.800                : en:Capítulo 09
    00:30:47.470                : en:Capítulo 10
    00:32:47.799                : en:Capítulo 11
    00:37:53.104                : en:Capítulo 12
    00:39:16.645                : en:Capítulo 13
    00:43:58.010                : en:Capítulo 14
    00:46:34.500                : en:Capítulo 15
    00:51:25.082                : en:Capítulo 16
    00:53:44.387                : en:Capítulo 17
    00:59:08.586                : en:Capítulo 18
    01:02:18.609                : en:Capítulo 19
    01:03:18.795                : en:Capítulo 20
    01:06:54.385                : en:Capítulo 21
    01:09:32.793                : en:Capítulo 22
    01:12:46.445                : en:Capítulo 23
    01:16:50.355                : en:Capítulo 24
    01:23:37.429                : en:Capítulo 25
    01:26:03.658                : en:Capítulo 26
    01:31:51.964                : en:Capítulo 27
    01:34:41.759                : en:Capítulo 28
    01:38:27.943                : en:Capítulo 29
    01:41:30.876                : en:Capítulo 30
    01:43:47.471                : en:Capítulo 31
    01:46:27.339                : en:Capítulo 32
    01:48:34.674                : en:Capítulo 33
    01:50:44.638                : en:Capítulo 34
    01:52:57.437                : en:Capítulo 35
    01:56:53.548                : en:Capítulo 36
    01:58:39.987                : en:Capítulo 37
    02:00:03.112                : en:Capítulo 38
    02:01:17.144                : en:Capítulo 39

  • Peso: 51.8 GiB

Sinopsis

Aiming to defeat the Man of Steel, wealthy executive Ross Webster hires bumbling but brilliant Gus Gorman to develop synthetic kryptonite, which yields some unexpected psychological effects in the third installment of the 1980s Superman franchise. Between rekindling romance with his high school sweetheart and saving himself, Superman must contend with a powerful supercomputer.

Ficha técnica

Video trailer de la película

Enlaces de descarga

Rip de Bluray

Descargar Superman III (1983) REMUX 4K HDR Latino – CMHDD


Aportes de DPeliculasHDmega la pass es:dpeliculashdmega.org Aportes de CinemaniaHD la pass es:cinemaniahdd.com Aportes recientes:cinemaniahdd.net
Guardado en : Action , Adventure , Comedy , Science Fiction

Películas relacionadas

  • Mi Gran Boda Griega 3 (2023) REMUX 1080p Latino

    Mi Gran Boda Griega 3 (2023) REMUX 1080p Latino

    2023
    Mi Gran Boda Griega 3 (2023) REMUX 1080p Latino

    1h 32m 2023

    Descargar Mi Gran Boda Griega 3 (2023) REMUX 1080p Latino. Acompaña a la familia Portokalos en su viaje...

    Director: Nia Vardalos

    Género: Comedy

    Actores: Tannis Burnett

  • Blue Beetle (2023) Full HD 1080p Latino-CMHDD

    Blue Beetle (2023) Full HD 1080p Latino-CMHDD

    2023
    Blue Beetle (2023) Full HD 1080p Latino-CMHDD

    2h 8m 2023

    Descargar Blue Beetle (2023) Full HD 1080p Latino-CMHDD. Jaime Reyes, recién licenciado, regresa a casa...

    Director: K.C. Hodenfield

    Género: Action

    Actores: Yuli Zorrilla

  • El Gran Truco (2006) Full HD 1080p Latino

    El Gran Truco (2006) Full HD 1080p Latino

    2006
    El Gran Truco (2006) Full HD 1080p Latino

    2h 10m 2006

    Descargar El Gran Truco (2006) Full HD 1080p Latino. Robert Angier es un ilusionista respetado que se...

    Director: Steve Gehrke

    Género: Drama

    Actores: William Morgan Sheppard

  • Flora and Son (2023) WEB-DL 1080p Latino

    Flora and Son (2023) WEB-DL 1080p Latino

    2023
    Flora and Son (2023) WEB-DL 1080p Latino

    1h 37m 2023

    Descargar Flora and Son (2023) WEB-DL 1080p Latino. Flora, madre soltera, no tiene idea de qué hacer...

    Director: John Carney

    Género: Comedy

    Actores: Stephen Ryan

  • La Lista (2023) AMZN WEB-DL 1080p Latino

    La Lista (2023) AMZN WEB-DL 1080p Latino

    2023
    La Lista (2023) AMZN WEB-DL 1080p Latino

    1h 37m 2023

    Descargar La Lista (2023) AMZN WEB-DL 1080p Latino. Después de que su prometido se acuesta con una celebridad...

    Director: Melissa Miller Costanzo

    Género: Comedy

    Actores: Zach Reino

descargar Superman III (1983) REMUX 4K HDR Latino – CMHDD 4K HDR 1080p gratis, Superman III (1983) REMUX 4K HDR Latino – CMHDD 4K HDR mega 1 link, Superman III (1983) REMUX 4K HDR Latino – CMHDD 4K HDR pelicula completa, descargar Superman III (1983) REMUX 4K HDR Latino – CMHDD 4K HDR gratis en mega.

Superman III (1983) REMUX 4K HDR Latino – CMHDD pelicula full hd, Superman III (1983) REMUX 4K HDR Latino – CMHDD mega latino, Superman III (1983) REMUX 4K HDR Latino – CMHDD 4k latino, Superman III (1983) REMUX 4K HDR Latino – CMHDD pelicula completa, Superman III (1983) REMUX 4K HDR Latino – CMHDD descargar gratis, descargar Superman III (1983) REMUX 4K HDR Latino – CMHDD pelicula latino, Superman III (1983) REMUX 4K HDR Latino – CMHDD 1 link mega, Superman III (1983) REMUX 4K HDR Latino – CMHDD 1 link google drive, Superman III (1983) REMUX 4K HDR Latino – CMHDD hd 1080p latino.
Comentarios 0