×

¿Problemas para descargar con Mozilla, EDGE? Deshabilita la opción "Abrir vinculos en una pestaña nueva" tal como lo muestra ésta imagen.

Puss in Boots The Last Wish (2022) REMUX 4K HDR Latino – CMHDD

222 vistas

Información de Puss in Boots The Last Wish (2022) REMUX 4K HDR Latino – CMHDD

Datos de la película

  • Calidad: 4K HDR
  • Audio: Español Latino AC3 2.0
  • Subtitulos: Español Latino PGS
  • Resolución: 3840x2160p
  • Formato: MKV
  • Codec: H.264
  • Encoder: Dracarys
  • Mediainfo: Clic para Mostrar Datos Ver
  • Format                      : Matroska
    Format version              : Version 4
    File size                   : 40.4 GiB
    Duration                    : 1 h 42 min
    Overall bit rate mode       : Variable
    Overall bit rate            : 56.5 Mb/s
    Movie name                  : Puss in Boots: The Last Wish (2022) REMUX 4K HDR Latino - CMHDD
    Encoded date                : UTC 2023-03-05 01:36:00
    Writing application         : mkvmerge v47.0.0 ('Black Flag') 64-bit
    Writing library             : libebml v1.3.10 + libmatroska v1.5.2
    Cover                       : Yes
    Attachments                 : cover.jpg

    Video
    ID                          : 1
    ID in the original source m : 4113 (0x1011)
    Format                      : HEVC
    Format/Info                 : High Efficiency Video Coding
    Format profile              : Main 10@L5.1@High
    HDR format                  : SMPTE ST 2086, HDR10 compatible
    Codec ID                    : V_MPEGH/ISO/HEVC
    Duration                    : 1 h 42 min
    Bit rate                    : 52.1 Mb/s
    Width                       : 3 840 pixels
    Height                      : 2 160 pixels
    Display aspect ratio        : 16:9
    Frame rate mode             : Constant
    Frame rate                  : 23.976 (24000/1001) FPS
    Color space                 : YUV
    Chroma subsampling          : 4:2:0 (Type 2)
    Bit depth                   : 10 bits
    Bits/(Pixel*Frame)          : 0.262
    Stream size                 : 37.3 GiB (92%)
    Default                     : Yes
    Forced                      : No
    Color range                 : Limited
    Color primaries             : BT.2020
    Transfer characteristics    : PQ
    Matrix coefficients         : BT.2020 non-constant
    Mastering display color pri : Display P3
    Mastering display luminance : min: 0.0050 cd/m2, max: 1000 cd/m2
    Maximum Content Light Level : 975 cd/m2
    Maximum Frame-Average Light : 276 cd/m2
    Original source medium      : Blu-ray

    Audio #1
    ID                          : 2
    ID in the original source m : 4352 (0x1100)
    Format                      : MLP FBA 16-ch
    Format/Info                 : Meridian Lossless Packing FBA with 16-channel presentation
    Commercial name             : Dolby TrueHD with Dolby Atmos
    Codec ID                    : A_TRUEHD
    Duration                    : 1 h 42 min
    Bit rate mode               : Variable
    Bit rate                    : 3 095 kb/s
    Maximum bit rate            : 5 115 kb/s
    Channel(s)                  : 8 channels
    Channel layout              : L R C LFE Ls Rs Lb Rb
    Sampling rate               : 48.0 kHz
    Frame rate                  : 1 200.000 FPS (40 SPF)
    Compression mode            : Lossless
    Stream size                 : 2.21 GiB (5%)
    Language                    : English
    Default                     : No
    Forced                      : No
    Original source medium      : Blu-ray
    Number of dynamic objects   : 11
    Bed channel count           : 1 channel
    Bed channel configuration   : LFE

    Audio #2
    ID                          : 3
    ID in the original source m : 4352 (0x1100)
    Format                      : AC-3
    Format/Info                 : Audio Coding 3
    Commercial name             : Dolby Digital
    Codec ID                    : A_AC3
    Duration                    : 1 h 42 min
    Bit rate mode               : Constant
    Bit rate                    : 448 kb/s
    Channel(s)                  : 6 channels
    Channel layout              : L R C LFE Ls Rs
    Sampling rate               : 48.0 kHz
    Frame rate                  : 31.250 FPS (1536 SPF)
    Compression mode            : Lossy
    Stream size                 : 328 MiB (1%)
    Language                    : English
    Service kind                : Complete Main
    Default                     : No
    Forced                      : No
    Original source medium      : Blu-ray

    Audio #3
    ID                          : 4
    ID in the original source m : 4353 (0x1101)
    Format                      : E-AC-3
    Format/Info                 : Enhanced AC-3
    Commercial name             : Dolby Digital Plus
    Format profile              : Blu-ray Disc
    Codec ID                    : A_EAC3
    Duration                    : 1 h 42 min
    Bit rate mode               : Constant
    Bit rate                    : 768 kb/s
    Channel(s)                  : 8 channels
    Channel layout              : L R C LFE Ls Rs Lb Rb
    Sampling rate               : 48.0 kHz
    Frame rate                  : 31.250 FPS (1536 SPF)
    Compression mode            : Lossy
    Stream size                 : 562 MiB (1%)
    Language                    : Spanish
    Service kind                : Complete Main
    Default                     : Yes
    Forced                      : No
    Original source medium      : Blu-ray

    Text #1
    ID                          : 5
    ID in the original source m : 4769 (0x12A1)
    Format                      : PGS
    Muxing mode                 : zlib
    Codec ID                    : S_HDMV/PGS
    Codec ID/Info               : Picture based subtitle format used on BDs/HD-DVDs
    Duration                    : 1 h 40 min
    Bit rate                    : 38.8 kb/s
    Frame rate                  : 0.501 FPS
    Count of elements           : 3037
    Stream size                 : 28.0 MiB (0%)
    Language                    : Spanish
    Default                     : No
    Forced                      : No
    Original source medium      : Blu-ray

    Text #2
    ID                          : 6
    ID in the original source m : 4771 (0x12A3)
    Format                      : PGS
    Muxing mode                 : zlib
    Codec ID                    : S_HDMV/PGS
    Codec ID/Info               : Picture based subtitle format used on BDs/HD-DVDs
    Duration                    : 1 h 36 min
    Bit rate                    : 764 b/s
    Frame rate                  : 0.009 FPS
    Count of elements           : 50
    Stream size                 : 542 KiB (0%)
    Language                    : Spanish
    Default                     : No
    Forced                      : No
    Original source medium      : Blu-ray

    Menu
    00:00:00.000                : en:Capítulo 01
    00:08:42.230                : en:Capítulo 02
    00:12:38.215                : en:Capítulo 03
    00:16:33.075                : en:Capítulo 04
    00:21:20.320                : en:Capítulo 05
    00:28:56.985                : en:Capítulo 06
    00:32:42.251                : en:Capítulo 07
    00:37:15.399                : en:Capítulo 08
    00:40:22.420                : en:Capítulo 09
    00:44:59.613                : en:Capítulo 10
    00:50:21.184                : en:Capítulo 11
    00:56:20.543                : en:Capítulo 12
    01:01:56.963                : en:Capítulo 13
    01:05:25.046                : en:Capítulo 14
    01:09:12.273                : en:Capítulo 15
    01:13:24.858                : en:Capítulo 16
    01:18:46.680                : en:Capítulo 17
    01:23:24.874                : en:Capítulo 18
    01:27:32.247                : en:Capítulo 19
    01:33:43.534                : en:Capítulo 20

  • Peso: 40.4 GiB

Sinopsis

Puss in Boots discovers that his passion for adventure has taken its toll: He has burned through eight of his nine lives, leaving him with only one life left. Puss sets out on an epic journey to find the mythical Last Wish and restore his nine lives.

Ficha técnica

Video trailer de la película

Enlaces de descarga

Rip de Bluray

Descargar Puss in Boots The Last Wish (2022) REMUX 4K HDR Latino – CMHDD


Aportes de DPeliculasHDmega la pass es:dpeliculashdmega.org Aportes de CinemaniaHD la pass es:cinemaniahdd.com Aportes recientes:cinemaniahdd.net
Guardado en : Adventure , Animation , Comedy , Family

Películas relacionadas

  • Your Name (2016) REMUX 4K HDR Latino – CMHDD

    Your Name (2016) REMUX 4K HDR Latino – CMHDD

    2016
    Your Name (2016) REMUX 4K HDR Latino – CMHDD

    1h 46m 2016

    High schoolers Mitsuha and Taki are complete strangers living separate lives. But one night, they suddenly...

    Director: Yoshitoshi Shinomiya

    Género: Animation

    Actores: Yuuki Shin

  • Mi Gran Boda Griega 3 (2023) REMUX 1080p Latino

    Mi Gran Boda Griega 3 (2023) REMUX 1080p Latino

    2023
    Mi Gran Boda Griega 3 (2023) REMUX 1080p Latino

    1h 32m 2023

    Descargar Mi Gran Boda Griega 3 (2023) REMUX 1080p Latino. Acompaña a la familia Portokalos en su viaje...

    Director: Nia Vardalos

    Género: Comedy

    Actores: Tannis Burnett

  • Blue Beetle (2023) Full HD 1080p Latino-CMHDD

    Blue Beetle (2023) Full HD 1080p Latino-CMHDD

    2023
    Blue Beetle (2023) Full HD 1080p Latino-CMHDD

    2h 8m 2023

    Descargar Blue Beetle (2023) Full HD 1080p Latino-CMHDD. Jaime Reyes, recién licenciado, regresa a casa...

    Director: K.C. Hodenfield

    Género: Action

    Actores: Yuli Zorrilla

  • Flora and Son (2023) WEB-DL 1080p Latino

    Flora and Son (2023) WEB-DL 1080p Latino

    2023
    Flora and Son (2023) WEB-DL 1080p Latino

    1h 37m 2023

    Descargar Flora and Son (2023) WEB-DL 1080p Latino. Flora, madre soltera, no tiene idea de qué hacer...

    Director: John Carney

    Género: Comedy

    Actores: Stephen Ryan

  • La Lista (2023) AMZN WEB-DL 1080p Latino

    La Lista (2023) AMZN WEB-DL 1080p Latino

    2023
    La Lista (2023) AMZN WEB-DL 1080p Latino

    1h 37m 2023

    Descargar La Lista (2023) AMZN WEB-DL 1080p Latino. Después de que su prometido se acuesta con una celebridad...

    Director: Melissa Miller Costanzo

    Género: Comedy

    Actores: Zach Reino

descargar Puss in Boots The Last Wish (2022) REMUX 4K HDR Latino – CMHDD 4K HDR 1080p gratis, Puss in Boots The Last Wish (2022) REMUX 4K HDR Latino – CMHDD 4K HDR mega 1 link, Puss in Boots The Last Wish (2022) REMUX 4K HDR Latino – CMHDD 4K HDR pelicula completa, descargar Puss in Boots The Last Wish (2022) REMUX 4K HDR Latino – CMHDD 4K HDR gratis en mega.

Puss in Boots The Last Wish (2022) REMUX 4K HDR Latino – CMHDD pelicula full hd, Puss in Boots The Last Wish (2022) REMUX 4K HDR Latino – CMHDD mega latino, Puss in Boots The Last Wish (2022) REMUX 4K HDR Latino – CMHDD 4k latino, Puss in Boots The Last Wish (2022) REMUX 4K HDR Latino – CMHDD pelicula completa, Puss in Boots The Last Wish (2022) REMUX 4K HDR Latino – CMHDD descargar gratis, descargar Puss in Boots The Last Wish (2022) REMUX 4K HDR Latino – CMHDD pelicula latino, Puss in Boots The Last Wish (2022) REMUX 4K HDR Latino – CMHDD 1 link mega, Puss in Boots The Last Wish (2022) REMUX 4K HDR Latino – CMHDD 1 link google drive, Puss in Boots The Last Wish (2022) REMUX 4K HDR Latino – CMHDD hd 1080p latino.
Comentarios 0