×

¿Problemas para descargar con Mozilla, EDGE? Deshabilita la opción "Abrir vinculos en una pestaña nueva" tal como lo muestra ésta imagen.

Pokémon: Las crónicas de Arceus (2022) NF WEB-DL 1080p Latino

65 vistas

Información de Pokémon: Las crónicas de Arceus (2022) NF WEB-DL 1080p Latino

Datos de la película

  • Calidad: WEBDL
  • Audio: Español Latino AC3 2.0 WEB-DL - Ingles AC3 2.0 WEB-DL
  • Subtitulos: Español Latino SRT- FORZADOS SRT
  • Resolución: 1920x1080p
  • Formato: MKV
  • Codec: H.264
  • Encoder: Melkor
  • Mediainfo: Clic para Mostrar Datos Ver
  • Pokemon Las Cronicas De Arceus (2022) NF WebDL 1080p Latino.mkv
    Format                      : Matroska
    Format version              : Version 4
    File size                   : 1.75 GiB
    Duration                    : 1 h 4 min
    Overall bit rate mode       : Variable
    Overall bit rate            : 3 859 kb/s
    Movie name                  : Pokemon the Arceus Chronicles (2022) CinemaniaHDD.Net
    Encoded date                : UTC 2022-09-25 21:58:04
    Writing application         : mkvmerge v56.1.0 ('My Friend') 64-bit
    Writing library             : libebml v1.4.2 + libmatroska v1.6.4
    Attachments                 : CINEMANIAHD.png

    Video
    ID                          : 1
    Format                      : AVC
    Format/Info                 : Advanced Video Codec
    Format profile              : Main@L4
    Format settings             : CABAC / 3 Ref Frames
    Format settings, CABAC      : Yes
    Format settings, Reference  : 3 frames
    Codec ID                    : V_MPEG4/ISO/AVC
    Duration                    : 1 h 4 min
    Bit rate mode               : Variable
    Bit rate                    : 3 345 kb/s
    Nominal bit rate            : 3 714 kb/s
    Maximum bit rate            : 5 745 kb/s
    Width                       : 1 920 pixels
    Height                      : 1 080 pixels
    Display aspect ratio        : 16:9
    Frame rate mode             : Constant
    Frame rate                  : 23.976 (24000/1001) FPS
    Color space                 : YUV
    Chroma subsampling          : 4:2:0
    Bit depth                   : 8 bits
    Scan type                   : Progressive
    Bits/(Pixel*Frame)          : 0.067
    Stream size                 : 1.51 GiB (87%)
    Title                       : Web HD1080p [CinemaniaHDD]
    Writing library             : x264 core 148 r2727 7d026e8
    Encoding settings           : cabac=1 / ref=3 / deblock=1:0:0 / analyse=0x1:0x111 / me=umh / subme=10 / psy=1 / psy_rd=1.00:0.00 / mixed_ref=1 / me_range=24 / chroma_me=1 / trellis=2 / 8x8dct=0 / cqm=0 / deadzone=21,11 / fast_pskip=1 / chroma_qp_offset=-2 / threads=6 / lookahead_threads=1 / sliced_threads=0 / nr=0 / decimate=1 / interlaced=0 / bluray_compat=0 / stitchable=1 / constrained_intra=0 / bframes=2 / b_pyramid=0 / b_adapt=2 / b_bias=0 / direct=3 / weightb=1 / open_gop=0 / weightp=2 / keyint=250 / keyint_min=23 / scenecut=0 / intra_refresh=0 / rc_lookahead=48 / rc=2pass / mbtree=1 / bitrate=3714 / ratetol=1.0 / qcomp=0.50 / qpmin=6 / qpmax=51 / qpstep=4 / cplxblur=20.0 / qblur=0.5 / vbv_maxrate=5745 / vbv_bufsize=7660 / nal_hrd=vbr / filler=0 / ip_ratio=1.40 / aq=1:1.00
    Default                     : Yes
    Forced                      : Yes

    Audio #1
    ID                          : 2
    Format                      : AC-3
    Format/Info                 : Audio Coding 3
    Commercial name             : Dolby Digital
    Codec ID                    : A_AC3
    Duration                    : 1 h 4 min
    Bit rate mode               : Constant
    Bit rate                    : 256 kb/s
    Channel(s)                  : 2 channels
    Channel layout              : L R
    Sampling rate               : 48.0 kHz
    Frame rate                  : 31.250 FPS (1536 SPF)
    Compression mode            : Lossy
    Stream size                 : 119 MiB (7%)
    Title                       : Español Latino [CinemaniaHDD]
    Language                    : Spanish
    Service kind                : Complete Main
    Default                     : Yes
    Forced                      : Yes

    Audio #2
    ID                          : 3
    Format                      : AC-3
    Format/Info                 : Audio Coding 3
    Commercial name             : Dolby Digital
    Codec ID                    : A_AC3
    Duration                    : 1 h 4 min
    Bit rate mode               : Constant
    Bit rate                    : 256 kb/s
    Channel(s)                  : 2 channels
    Channel layout              : L R
    Sampling rate               : 48.0 kHz
    Frame rate                  : 31.250 FPS (1536 SPF)
    Compression mode            : Lossy
    Stream size                 : 119 MiB (7%)
    Title                       : Ingles [CinemaniaHDD]
    Language                    : English
    Service kind                : Complete Main
    Default                     : No
    Forced                      : No

    Text #1
    ID                          : 4
    Format                      : UTF-8
    Codec ID                    : S_TEXT/UTF8
    Codec ID/Info               : UTF-8 Plain Text
    Duration                    : 3 s 587 ms
    Bit rate                    : 35 b/s
    Count of elements           : 1
    Stream size                 : 16.0 Bytes (0%)
    Title                       : Forzados-SRT [CinemaniaHDD]
    Language                    : Spanish
    Default                     : Yes
    Forced                      : Yes

    Text #2
    ID                          : 5
    Format                      : UTF-8
    Codec ID                    : S_TEXT/UTF8
    Codec ID/Info               : UTF-8 Plain Text
    Duration                    : 1 h 2 min
    Bit rate                    : 42 b/s
    Count of elements           : 570
    Stream size                 : 19.7 KiB (0%)
    Title                       : Español-SRT [CinemaniaHDD]
    Language                    : Spanish
    Default                     : No
    Forced                      : No

  • Peso: 1.75 GiB

Sinopsis

Descargar Pokémon: Las crónicas de Arceus (2022) NF WEB-DL 1080p Latino. Mientras investigan la leyenda del mítico Pokémon Arceus, Ash, Goh y Dawn descubren un plan del equipo Galaxia que amenaza al mundo.

Ficha técnica

Video trailer de la película

Enlaces de descarga

Rip de Bluray

Descargar Pokémon: Las crónicas de Arceus (2022) NF WEB-DL 1080p Latino




Aportes de DPeliculasHDmega la pass es:dpeliculashdmega.org Aportes de CinemaniaHD la pass es:cinemaniahdd.com

Películas relacionadas

descargar Pokémon: Las crónicas de Arceus (2022) NF WEB-DL 1080p Latino WEBDL 1080p gratis, Pokémon: Las crónicas de Arceus (2022) NF WEB-DL 1080p Latino WEBDL mega 1 link, Pokémon: Las crónicas de Arceus (2022) NF WEB-DL 1080p Latino WEBDL pelicula completa, descargar Pokémon: Las crónicas de Arceus (2022) NF WEB-DL 1080p Latino WEBDL gratis en mega.

Pokémon: Las crónicas de Arceus (2022) NF WEB-DL 1080p Latino pelicula full hd, Pokémon: Las crónicas de Arceus (2022) NF WEB-DL 1080p Latino mega latino, Pokémon: Las crónicas de Arceus (2022) NF WEB-DL 1080p Latino 4k latino, Pokémon: Las crónicas de Arceus (2022) NF WEB-DL 1080p Latino pelicula completa, Pokémon: Las crónicas de Arceus (2022) NF WEB-DL 1080p Latino descargar gratis, descargar Pokémon: Las crónicas de Arceus (2022) NF WEB-DL 1080p Latino pelicula latino, Pokémon: Las crónicas de Arceus (2022) NF WEB-DL 1080p Latino 1 link mega, Pokémon: Las crónicas de Arceus (2022) NF WEB-DL 1080p Latino 1 link google drive, Pokémon: Las crónicas de Arceus (2022) NF WEB-DL 1080p Latino hd 1080p latino.
Comentarios 0