×

¿Problemas para descargar con Mozilla, EDGE? Deshabilita la opción "Abrir vinculos en una pestaña nueva" tal como lo muestra ésta imagen.

Oppenheimer (2023) IMAX REMUX 1080p Latino-CMHDD

190 vistas

Información de Oppenheimer (2023) IMAX REMUX 1080p Latino-CMHDD

Datos de la película

  • Calidad: Full 1080p
  • Audio: Español Latino DTS 5.1 BLURAY - Ingles DTS-HD 5.1 BLURAY
  • Subtitulos: Español Latino PGS - Ingles PGS
  • Resolución: 1920x1080p
  • Formato: MKV
  • Codec: H.264
  • Encoder: CinefiloCool | Souce: FullBD -BDA
  • Mediainfo: Clic para Mostrar Datos Ver
  • Oppenheimer.2023.REMUX.IMAX.1080p.AVC.Latino-CC@CMHDD.mkv
    Format                      : Matroska
    Format version              : Version 4
    File size                   : 40.1 GiB
    Duration                    : 3 h 0 min
    Overall bit rate mode       : Variable
    Overall bit rate            : 31.8 Mb/s
    Movie name                  : Oppenheimer (2023) CinemaniaHDD.Net
    Encoded date                : UTC 2023-11-16 02:27:56
    Writing application         : mkvmerge v56.1.0 ('My Friend') 64-bit
    Writing library             : libebml v1.4.2 + libmatroska v1.6.4
    Cover                       : Yes
    Attachments                 : CINEMANIAHD.png / cover.jpg

    Video
    ID                          : 1
    ID in the original source m : 4113 (0x1011)
    Format                      : AVC
    Format/Info                 : Advanced Video Codec
    Format profile              : High@L4.1
    Format settings             : CABAC / 4 Ref Frames
    Format settings, CABAC      : Yes
    Format settings, Reference  : 4 frames
    Format settings, GOP        : M=3, N=12
    Codec ID                    : V_MPEG4/ISO/AVC
    Duration                    : 3 h 0 min
    Bit rate mode               : Variable
    Bit rate                    : 27.4 Mb/s
    Maximum bit rate            : 38.6 Mb/s
    Width                       : 1 920 pixels
    Height                      : 1 080 pixels
    Display aspect ratio        : 16:9
    Frame rate mode             : Constant
    Frame rate                  : 23.976 (24000/1001) FPS
    Color space                 : YUV
    Chroma subsampling          : 4:2:0
    Bit depth                   : 8 bits
    Scan type                   : Progressive
    Bits/(Pixel*Frame)          : 0.551
    Stream size                 : 34.5 GiB (86%)
    Title                       : REMUX HD1080p [CinemaniaHDD]
    Default                     : Yes
    Forced                      : Yes
    Original source medium      : Blu-ray

    Audio #1
    ID                          : 2
    ID in the original source m : 4353 (0x1101)
    Format                      : DTS
    Format/Info                 : Digital Theater Systems
    Codec ID                    : A_DTS
    Duration                    : 3 h 0 min
    Bit rate mode               : Constant
    Bit rate                    : 768 kb/s
    Channel(s)                  : 6 channels
    Channel layout              : C L R Ls Rs LFE
    Sampling rate               : 48.0 kHz
    Frame rate                  : 93.750 FPS (512 SPF)
    Bit depth                   : 24 bits
    Compression mode            : Lossy
    Stream size                 : 991 MiB (2%)
    Title                       : Español Latino [CinemaniaHDD]
    Language                    : Spanish
    Default                     : Yes
    Forced                      : Yes
    Original source medium      : Blu-ray

    Audio #2
    ID                          : 3
    ID in the original source m : 4352 (0x1100)
    Format                      : DTS XLL
    Format/Info                 : Digital Theater Systems
    Commercial name             : DTS-HD Master Audio
    Codec ID                    : A_DTS
    Duration                    : 3 h 0 min
    Bit rate mode               : Variable
    Bit rate                    : 3 567 kb/s
    Channel(s)                  : 6 channels
    Channel layout              : C L R Ls Rs LFE
    Sampling rate               : 48.0 kHz
    Frame rate                  : 93.750 FPS (512 SPF)
    Bit depth                   : 24 bits
    Compression mode            : Lossless
    Stream size                 : 4.49 GiB (11%)
    Title                       : Ingles [CinemaniaHDD]
    Language                    : English
    Default                     : No
    Forced                      : No
    Original source medium      : Blu-ray

    Text #1
    ID                          : 4
    ID in the original source m : 4611 (0x1203)
    Format                      : PGS
    Muxing mode                 : zlib
    Codec ID                    : S_HDMV/PGS
    Codec ID/Info               : Picture based subtitle format used on BDs/HD-DVDs
    Duration                    : 2 h 59 min
    Bit rate                    : 259 b/s
    Count of elements           : 28
    Stream size                 : 340 KiB (0%)
    Title                       : Forzados-PGS [CinemaniaHDD]
    Language                    : Spanish
    Default                     : No
    Forced                      : No
    Original source medium      : Blu-ray

    Text #2
    ID                          : 5
    ID in the original source m : 4609 (0x1201)
    Format                      : PGS
    Muxing mode                 : zlib
    Codec ID                    : S_HDMV/PGS
    Codec ID/Info               : Picture based subtitle format used on BDs/HD-DVDs
    Duration                    : 2 h 59 min
    Bit rate                    : 55.4 kb/s
    Count of elements           : 5892
    Stream size                 : 71.1 MiB (0%)
    Title                       : Español-PGS [CinemaniaHDD]
    Language                    : Spanish
    Default                     : No
    Forced                      : No
    Original source medium      : Blu-ray

    Text #3
    ID                          : 6
    ID in the original source m : 4608 (0x1200)
    Format                      : PGS
    Muxing mode                 : zlib
    Codec ID                    : S_HDMV/PGS
    Codec ID/Info               : Picture based subtitle format used on BDs/HD-DVDs
    Duration                    : 2 h 53 min
    Bit rate                    : 61.7 kb/s
    Count of elements           : 6172
    Stream size                 : 76.4 MiB (0%)
    Title                       : Ingles [CinemaniaHDD]
    Language                    : English
    Default                     : No
    Forced                      : No
    Original source medium      : Blu-ray

    Text #4
    ID                          : 7
    Format                      : UTF-8
    Codec ID                    : S_TEXT/UTF8
    Codec ID/Info               : UTF-8 Plain Text
    Duration                    : 2 h 13 min
    Bit rate                    : 0 b/s
    Count of elements           : 24
    Stream size                 : 925 Bytes (0%)
    Title                       : Forzados-SRT [CinemaniaHDD]
    Language                    : Spanish
    Default                     : Yes
    Forced                      : Yes

    Text #5
    ID                          : 8
    Format                      : UTF-8
    Codec ID                    : S_TEXT/UTF8
    Codec ID/Info               : UTF-8 Plain Text
    Duration                    : 2 h 52 min
    Bit rate                    : 81 b/s
    Count of elements           : 2842
    Stream size                 : 103 KiB (0%)
    Title                       : Español-SRT [CinemaniaHDD]
    Language                    : Spanish
    Default                     : No
    Forced                      : No

    Menu
    00:00:00.000                : Chapter 01
    00:07:23.526                : Chapter 02
    00:16:36.078                : Chapter 03
    00:27:23.975                : Chapter 04
    00:36:01.534                : Chapter 05
    00:42:51.652                : Chapter 06
    00:52:31.606                : Chapter 07
    00:59:56.593                : Chapter 08
    01:10:53.540                : Chapter 09
    01:17:58.215                : Chapter 10
    01:24:14.340                : Chapter 11
    01:36:07.011                : Chapter 12
    01:43:06.930                : Chapter 13
    01:51:19.589                : Chapter 14
    02:00:18.377                : Chapter 15
    02:09:02.192                : Chapter 16
    02:17:08.637                : Chapter 17
    02:32:04.949                : Chapter 18
    02:47:40.633                : Chapter 19
    02:54:12.442                : Chapter 20

  • Peso: 40.1 GiB

Sinopsis

Descargar Oppenheimer (2023) IMAX REMUX 1080p Latino. Película sobre el físico J. Robert Oppenheimer y su papel como desarrollador de la bomba atómica. Basada en el libro ‘American Prometheus: The Triumph and Tragedy of J. Robert Oppenheimer’ de Kai Bird y Martin J. Sherwin.

Ficha técnica

Video trailer de la película

Enlaces de descarga

Rip de Bluray

Descargar Oppenheimer (2023) IMAX REMUX 1080p Latino-CMHDD




Aportes de DPeliculasHDmega la pass es:dpeliculashdmega.org Aportes de CinemaniaHD la pass es:cinemaniahdd.com Aportes recientes:cinemaniahdd.net
Guardado en : Drama , Historia , Remux

Películas relacionadas

  • iZombie (2016) Temporada 02 Full HD 1080p Latino

    iZombie (2016) Temporada 02 Full HD 1080p Latino

    2015
    iZombie (2016) Temporada 02 Full HD 1080p Latino

    0h 42m 2015

    Descargar iZombie (2016) Temporada 02 Full HD 1080p Latino. Gira en torno a una estudiante de medicina...

    Director: Rob Thomas

    Género: Crimen

    Actores: Rose McIver

  • iZombie (2016) Temporada 02 REMUX 1080p Latino

    iZombie (2016) Temporada 02 REMUX 1080p Latino

    2015
    iZombie (2016) Temporada 02 REMUX 1080p Latino

    0h 42m 2015

    Descargar iZombie (2016) Temporada 02 REMUX 1080p Latino. Gira en torno a una estudiante de medicina...

    Director: Rob Thomas

    Género: Crimen

    Actores: Rose McIver

  • iZombie (2015) Temporada 01 Full HD 1080p Latino

    iZombie (2015) Temporada 01 Full HD 1080p Latino

    2015
    iZombie (2015) Temporada 01 Full HD 1080p Latino

    0h 42m 2015

    Descargar iZombie (2015) Temporada 01 Full HD 1080p Latino. Gira en torno a una estudiante de medicina...

    Director: Rob Thomas

    Género: Crimen

    Actores: Rose McIver

  • iZombie (2015) Temporada 01 REMUX 1080p Latino

    iZombie (2015) Temporada 01 REMUX 1080p Latino

    2015
    iZombie (2015) Temporada 01 REMUX 1080p Latino

    0h 42m 2015

    Descargar iZombie (2015) Temporada 01 REMUX 1080p Latino. Gira en torno a una estudiante de medicina...

    Director: Rob Thomas

    Género: Crimen

    Actores: Rose McIver

descargar Oppenheimer (2023) IMAX REMUX 1080p Latino-CMHDD Full 1080p 1080p gratis, Oppenheimer (2023) IMAX REMUX 1080p Latino-CMHDD Full 1080p mega 1 link, Oppenheimer (2023) IMAX REMUX 1080p Latino-CMHDD Full 1080p pelicula completa, descargar Oppenheimer (2023) IMAX REMUX 1080p Latino-CMHDD Full 1080p gratis en mega.

Oppenheimer (2023) IMAX REMUX 1080p Latino-CMHDD pelicula full hd, Oppenheimer (2023) IMAX REMUX 1080p Latino-CMHDD mega latino, Oppenheimer (2023) IMAX REMUX 1080p Latino-CMHDD 4k latino, Oppenheimer (2023) IMAX REMUX 1080p Latino-CMHDD pelicula completa, Oppenheimer (2023) IMAX REMUX 1080p Latino-CMHDD descargar gratis, descargar Oppenheimer (2023) IMAX REMUX 1080p Latino-CMHDD pelicula latino, Oppenheimer (2023) IMAX REMUX 1080p Latino-CMHDD 1 link mega, Oppenheimer (2023) IMAX REMUX 1080p Latino-CMHDD 1 link google drive, Oppenheimer (2023) IMAX REMUX 1080p Latino-CMHDD hd 1080p latino.
Comentarios 0