×

¿Problemas para descargar con Mozilla, EDGE? Deshabilita la opción "Abrir vinculos en una pestaña nueva" tal como lo muestra ésta imagen.

Oppenheimer (2023) [IMAX] REMUX 4K HDR Latino – CMHDD

205 vistas

Información de Oppenheimer (2023) [IMAX] REMUX 4K HDR Latino – CMHDD

Datos de la película

  • Calidad: 4K HDR
  • Audio: Español Latino DTS 5.1 BLURAY - Ingles DTS 5.1 BLURAY
  • Subtitulos: Español Latino SRT- FORZADOS SRT
  • Resolución: 3840x2160p
  • Formato: MKV
  • Codec: H.264
  • Encoder: Dracarys
  • Mediainfo: Clic para Mostrar Datos Ver
  • Format                      : Matroska
    Format version              : Version 4
    File size                   : 83.7 GiB
    Duration                    : 3 h 0 min
    Overall bit rate mode       : Variable
    Overall bit rate            : 66.4 Mb/s
    Movie name                  : Oppenheimer (2023) [IMAX] REMUX 4K HDR Latino - CMHDD
    Encoded date                : UTC 2023-11-16 13:44:04
    Writing application         : mkvmerge v47.0.0 ('Black Flag') 64-bit
    Writing library             : libebml v1.3.10 + libmatroska v1.5.2

    Video
    ID                          : 1
    ID in the original source m : 4113 (0x1011)
    Format                      : HEVC
    Format/Info                 : High Efficiency Video Coding
    Format profile              : Main 10@L5.1@High
    HDR format                  : SMPTE ST 2086, HDR10 compatible
    Codec ID                    : V_MPEGH/ISO/HEVC
    Duration                    : 3 h 0 min
    Bit rate                    : 61.4 Mb/s
    Width                       : 3 840 pixels
    Height                      : 2 160 pixels
    Display aspect ratio        : 16:9
    Frame rate mode             : Constant
    Frame rate                  : 23.976 (24000/1001) FPS
    Color space                 : YUV
    Chroma subsampling          : 4:2:0 (Type 2)
    Bit depth                   : 10 bits
    Bits/(Pixel*Frame)          : 0.309
    Stream size                 : 77.4 GiB (92%)
    Language                    : English
    Default                     : No
    Forced                      : No
    Color range                 : Limited
    Color primaries             : BT.2020
    Transfer characteristics    : PQ
    Matrix coefficients         : BT.2020 non-constant
    Mastering display color pri : Display P3
    Mastering display luminance : min: 0.0050 cd/m2, max: 1000 cd/m2
    Maximum Content Light Level : 186 cd/m2
    Maximum Frame-Average Light : 147 cd/m2
    Original source medium      : Blu-ray

    Audio #1
    ID                          : 2
    ID in the original source m : 4352 (0x1100)
    Format                      : DTS XLL
    Format/Info                 : Digital Theater Systems
    Commercial name             : DTS-HD Master Audio
    Codec ID                    : A_DTS
    Duration                    : 3 h 0 min
    Bit rate mode               : Variable
    Bit rate                    : 3 567 kb/s
    Channel(s)                  : 6 channels
    Channel layout              : C L R Ls Rs LFE
    Sampling rate               : 48.0 kHz
    Frame rate                  : 93.750 FPS (512 SPF)
    Bit depth                   : 24 bits
    Compression mode            : Lossless
    Stream size                 : 4.49 GiB (5%)
    Language                    : English
    Default                     : No
    Forced                      : No
    Original source medium      : Blu-ray

    Audio #2
    ID                          : 3
    Format                      : DTS
    Format/Info                 : Digital Theater Systems
    Codec ID                    : A_DTS
    Duration                    : 3 h 0 min
    Bit rate mode               : Constant
    Bit rate                    : 768 kb/s
    Channel(s)                  : 6 channels
    Channel layout              : C L R Ls Rs LFE
    Sampling rate               : 48.0 kHz
    Frame rate                  : 93.750 FPS (512 SPF)
    Bit depth                   : 24 bits
    Compression mode            : Lossy
    Stream size                 : 991 MiB (1%)
    Language                    : Spanish
    Default                     : Yes
    Forced                      : No

    Audio #3
    ID                          : 4
    Format                      : AC-3
    Format/Info                 : Audio Coding 3
    Commercial name             : Dolby Digital
    Codec ID                    : A_AC3
    Duration                    : 3 h 0 min
    Bit rate mode               : Constant
    Bit rate                    : 640 kb/s
    Channel(s)                  : 6 channels
    Channel layout              : L R C LFE Ls Rs
    Sampling rate               : 48.0 kHz
    Frame rate                  : 31.250 FPS (1536 SPF)
    Compression mode            : Lossy
    Stream size                 : 826 MiB (1%)
    Language                    : Spanish
    Service kind                : Complete Main
    Default                     : No
    Forced                      : No

    Text #1
    ID                          : 5
    Format                      : PGS
    Muxing mode                 : zlib
    Codec ID                    : S_HDMV/PGS
    Codec ID/Info               : Picture based subtitle format used on BDs/HD-DVDs
    Duration                    : 2 h 59 min
    Bit rate                    : 259 b/s
    Frame rate                  : 0.003 FPS
    Count of elements           : 28
    Stream size                 : 340 KiB (0%)
    Title                       : PGS-Forzados
    Language                    : Spanish
    Default                     : Yes
    Forced                      : No

    Text #2
    ID                          : 6
    Format                      : PGS
    Muxing mode                 : zlib
    Codec ID                    : S_HDMV/PGS
    Codec ID/Info               : Picture based subtitle format used on BDs/HD-DVDs
    Duration                    : 2 h 59 min
    Bit rate                    : 55.4 kb/s
    Frame rate                  : 0.548 FPS
    Count of elements           : 5892
    Stream size                 : 71.1 MiB (0%)
    Title                       : PGS-Completos
    Language                    : Spanish
    Default                     : No
    Forced                      : No

    Text #3
    ID                          : 7
    Format                      : UTF-8
    Codec ID                    : S_TEXT/UTF8
    Codec ID/Info               : UTF-8 Plain Text
    Duration                    : 2 h 13 min
    Bit rate                    : 0 b/s
    Frame rate                  : 0.003 FPS
    Count of elements           : 24
    Stream size                 : 925 Bytes (0%)
    Title                       : SRT-Forzados
    Language                    : Spanish
    Default                     : No
    Forced                      : No

    Text #4
    ID                          : 8
    Format                      : UTF-8
    Codec ID                    : S_TEXT/UTF8
    Codec ID/Info               : UTF-8 Plain Text
    Duration                    : 2 h 52 min
    Bit rate                    : 81 b/s
    Frame rate                  : 0.275 FPS
    Count of elements           : 2842
    Stream size                 : 103 KiB (0%)
    Title                       : SRT-Completos
    Language                    : Spanish
    Default                     : No
    Forced                      : No

    Menu
    00:00:00.000                : en:Chapter 01
    00:07:23.526                : en:Chapter 02
    00:16:36.370                : en:Chapter 03
    00:27:23.975                : en:Chapter 04
    00:36:01.534                : en:Chapter 05
    00:42:51.569                : en:Chapter 06
    00:52:31.606                : en:Chapter 07
    00:59:56.217                : en:Chapter 08
    01:10:53.749                : en:Chapter 09
    01:17:57.839                : en:Chapter 10
    01:24:14.340                : en:Chapter 11
    01:36:06.927                : en:Chapter 12
    01:43:06.555                : en:Chapter 13
    01:51:19.297                : en:Chapter 14
    02:00:18.169                : en:Chapter 15
    02:09:02.192                : en:Chapter 16
    02:17:08.303                : en:Chapter 17
    02:32:04.824                : en:Chapter 18
    02:47:40.592                : en:Chapter 19
    02:54:12.191                : en:Chapter 20

     

  • Peso: 83.7 GiB

Sinopsis

Película sobre el físico J. Robert Oppenheimer y su papel como desarrollador de la bomba atómica. Basada en el libro ‘American Prometheus: The Triumph and Tragedy of J. Robert Oppenheimer’ de Kai Bird y Martin J. Sherwin.

Ficha técnica

Video trailer de la película

Enlaces de descarga

Rip de Bluray

Descargar Oppenheimer (2023) [IMAX] REMUX 4K HDR Latino – CMHDD




Aportes de DPeliculasHDmega la pass es:dpeliculashdmega.org Aportes de CinemaniaHD la pass es:cinemaniahdd.com Aportes recientes:cinemaniahdd.net
Guardado en : Drama , Historia

Películas relacionadas

  • iZombie (2016) Temporada 02 Full HD 1080p Latino

    iZombie (2016) Temporada 02 Full HD 1080p Latino

    2015
    iZombie (2016) Temporada 02 Full HD 1080p Latino

    0h 42m 2015

    Descargar iZombie (2016) Temporada 02 Full HD 1080p Latino. Gira en torno a una estudiante de medicina...

    Director: Rob Thomas

    Género: Crimen

    Actores: Rose McIver

  • iZombie (2016) Temporada 02 REMUX 1080p Latino

    iZombie (2016) Temporada 02 REMUX 1080p Latino

    2015
    iZombie (2016) Temporada 02 REMUX 1080p Latino

    0h 42m 2015

    Descargar iZombie (2016) Temporada 02 REMUX 1080p Latino. Gira en torno a una estudiante de medicina...

    Director: Rob Thomas

    Género: Crimen

    Actores: Rose McIver

  • iZombie (2015) Temporada 01 Full HD 1080p Latino

    iZombie (2015) Temporada 01 Full HD 1080p Latino

    2015
    iZombie (2015) Temporada 01 Full HD 1080p Latino

    0h 42m 2015

    Descargar iZombie (2015) Temporada 01 Full HD 1080p Latino. Gira en torno a una estudiante de medicina...

    Director: Rob Thomas

    Género: Crimen

    Actores: Rose McIver

  • iZombie (2015) Temporada 01 REMUX 1080p Latino

    iZombie (2015) Temporada 01 REMUX 1080p Latino

    2015
    iZombie (2015) Temporada 01 REMUX 1080p Latino

    0h 42m 2015

    Descargar iZombie (2015) Temporada 01 REMUX 1080p Latino. Gira en torno a una estudiante de medicina...

    Director: Rob Thomas

    Género: Crimen

    Actores: Rose McIver

descargar Oppenheimer (2023) [IMAX] REMUX 4K HDR Latino – CMHDD 4K HDR 1080p gratis, Oppenheimer (2023) [IMAX] REMUX 4K HDR Latino – CMHDD 4K HDR mega 1 link, Oppenheimer (2023) [IMAX] REMUX 4K HDR Latino – CMHDD 4K HDR pelicula completa, descargar Oppenheimer (2023) [IMAX] REMUX 4K HDR Latino – CMHDD 4K HDR gratis en mega.

Oppenheimer (2023) [IMAX] REMUX 4K HDR Latino – CMHDD pelicula full hd, Oppenheimer (2023) [IMAX] REMUX 4K HDR Latino – CMHDD mega latino, Oppenheimer (2023) [IMAX] REMUX 4K HDR Latino – CMHDD 4k latino, Oppenheimer (2023) [IMAX] REMUX 4K HDR Latino – CMHDD pelicula completa, Oppenheimer (2023) [IMAX] REMUX 4K HDR Latino – CMHDD descargar gratis, descargar Oppenheimer (2023) [IMAX] REMUX 4K HDR Latino – CMHDD pelicula latino, Oppenheimer (2023) [IMAX] REMUX 4K HDR Latino – CMHDD 1 link mega, Oppenheimer (2023) [IMAX] REMUX 4K HDR Latino – CMHDD 1 link google drive, Oppenheimer (2023) [IMAX] REMUX 4K HDR Latino – CMHDD hd 1080p latino.
Comentarios 0