×

¿Problemas para descargar con Mozilla, EDGE? Deshabilita la opción "Abrir vinculos en una pestaña nueva" tal como lo muestra ésta imagen.

Murder in the Suburbs (2020) WEB-Rip 1080p Latino

261 vistas

Información de Murder in the Suburbs (2020) WEB-Rip 1080p Latino

Datos de la película

  • Calidad: WEBDL
  • Audio: Español Latino AC3 2.0
  • Subtitulos: No
  • Resolución: 1920x1080
  • Formato: MKV
  • Codec: H.264
  • Encoder: cinemaniahdd
  • Mediainfo: Clic para Mostrar Datos Ver
  • Murder in the Suburbs (2020) WEB-Rip 1080p Latino [CNMNHDD].mkv
    Format                      : Matroska
    Format version              : Version 4
    File size                   : 3.72 GiB
    Duration                    : 1 h 25 min
    Overall bit rate mode       : Constant
    Overall bit rate            : 6 212 kb/s
    Movie name                  : Murder in the Suburbs (2020) - CinemaniaHDD.Net
    Encoded date                : UTC 2020-08-28 02:46:26
    Writing application         : mkvmerge v46.0.0 ('No Deeper Escape') 64-bit
    Writing library             : libebml v1.3.10 + libmatroska v1.5.2

    Video
    ID                          : 1
    Format                      : AVC
    Format/Info                 : Advanced Video Codec
    Format profile              : Main@L4.1
    Format settings             : CABAC / 3 Ref Frames
    Format settings, CABAC      : Yes
    Format settings, Reference  : 3 frames
    Codec ID                    : V_MPEG4/ISO/AVC
    Duration                    : 1 h 25 min
    Bit rate mode               : Constant
    Bit rate                    : 6 000 kb/s
    Width                       : 1 920 pixels
    Height                      : 1 080 pixels
    Display aspect ratio        : 16:9
    Frame rate mode             : Constant
    Frame rate                  : 29.970 (30000/1001) FPS
    Color space                 : YUV
    Chroma subsampling          : 4:2:0
    Bit depth                   : 8 bits
    Scan type                   : Progressive
    Bits/(Pixel*Frame)          : 0.097
    Stream size                 : 3.56 GiB (96%)
    Title                       : CinemaniaHDD
    Language                    : Spanish
    Default                     : Yes
    Forced                      : No

    Audio
    ID                          : 2
    Format                      : AC-3
    Format/Info                 : Audio Coding 3
    Commercial name             : Dolby Digital
    Codec ID                    : A_AC3
    Duration                    : 1 h 25 min
    Bit rate mode               : Constant
    Bit rate                    : 256 kb/s
    Channel(s)                  : 2 channels
    Channel layout              : L R
    Sampling rate               : 48.0 kHz
    Frame rate                  : 31.250 FPS (1536 SPF)
    Compression mode            : Lossy
    Stream size                 : 157 MiB (4%)
    Title                       : Español latino [CinemaniaHDD]
    Language                    : Spanish
    Service kind                : Complete Main
    Default                     : Yes
    Forced                      : No

     

  • Peso: 3.72 GiB

Sinopsis

Una familia feliz se convierte en el blanco desprevenido de una madre afligida envuelta en el misterio que rodea la trágica muerte de su familia después de que un grupo de adolescentes haga un pacto para mantener en secreto lo que sucedió.

Ficha técnica

Video trailer de la película

Enlaces de descarga

Rip de Bluray

Descargar Murder in the Suburbs (2020) WEB-Rip 1080p Latino




Aportes de DPeliculasHDmega la pass es:dpeliculashdmega.org Aportes de CinemaniaHD la pass es:cinemaniahdd.com
Guardado en : Sin categoría

Películas relacionadas

descargar Murder in the Suburbs (2020) WEB-Rip 1080p Latino WEBDL 1080p gratis, Murder in the Suburbs (2020) WEB-Rip 1080p Latino WEBDL mega 1 link, Murder in the Suburbs (2020) WEB-Rip 1080p Latino WEBDL pelicula completa, descargar Murder in the Suburbs (2020) WEB-Rip 1080p Latino WEBDL gratis en mega.

Murder in the Suburbs (2020) WEB-Rip 1080p Latino pelicula full hd, Murder in the Suburbs (2020) WEB-Rip 1080p Latino mega latino, Murder in the Suburbs (2020) WEB-Rip 1080p Latino 4k latino, Murder in the Suburbs (2020) WEB-Rip 1080p Latino pelicula completa, Murder in the Suburbs (2020) WEB-Rip 1080p Latino descargar gratis, descargar Murder in the Suburbs (2020) WEB-Rip 1080p Latino pelicula latino, Murder in the Suburbs (2020) WEB-Rip 1080p Latino 1 link mega, Murder in the Suburbs (2020) WEB-Rip 1080p Latino 1 link google drive, Murder in the Suburbs (2020) WEB-Rip 1080p Latino hd 1080p latino.
Comentarios 0