×

¿Problemas para descargar con Mozilla, EDGE? Deshabilita la opción "Abrir vinculos en una pestaña nueva" tal como lo muestra ésta imagen.

Under The Grapefruit Tree: The CC Sabathia Story (2020) AMZN WEB-DL 1080p Latino

303 vistas

Información de Under The Grapefruit Tree: The CC Sabathia Story (2020) AMZN WEB-DL 1080p Latino

Datos de la película

  • Calidad: WEBDL
  • Audio: Español Latino AC3 2.0 - Ingles AC3 2.0
  • Subtitulos: Español Latino SRT - Ingles SRT
  • Resolución: 1920x1080
  • Formato: MKV
  • Codec: H.264
  • Encoder: cinemaniahdd
  • Mediainfo: Clic para Mostrar Datos Ver
  • Under the Grapefruit Tree. The CC Sabathia Story (2020) AMZN WEB-DL 1080p Latino [CNMNHDD].mkv
    Format                      : Matroska
    Format version              : Version 4
    File size                   : 4.21 GiB
    Duration                    : 1 h 6 min
    Overall bit rate mode       : Variable
    Overall bit rate            : 9 005 kb/s
    Movie name                  : Under the Grapefruit Tree. The CC Sabathia Story (2020) - CinemaniaHDD.Net
    Encoded date                : UTC 2020-12-23 19:30:51
    Writing application         : mkvmerge v51.0.0 ('I Wish') 64-bit
    Writing library             : libebml v1.4.0 + libmatroska v1.6.2

    Video
    ID                          : 1
    Format                      : AVC
    Format/Info                 : Advanced Video Codec
    Format profile              : High@L4
    Format settings             : CABAC / 4 Ref Frames
    Format settings, CABAC      : Yes
    Format settings, Reference  : 4 frames
    Codec ID                    : V_MPEG4/ISO/AVC
    Duration                    : 1 h 6 min
    Bit rate mode               : Variable
    Bit rate                    : 8 234 kb/s
    Maximum bit rate            : 12.4 Mb/s
    Width                       : 1 920 pixels
    Height                      : 1 080 pixels
    Display aspect ratio        : 16:9
    Frame rate mode             : Constant
    Frame rate                  : 23.976 (24000/1001) FPS
    Color space                 : YUV
    Chroma subsampling          : 4:2:0
    Bit depth                   : 8 bits
    Scan type                   : Progressive
    Bits/(Pixel*Frame)          : 0.166
    Stream size                 : 3.85 GiB (91%)
    Title                       : CinemaniaHDD
    Language                    : English
    Default                     : Yes
    Forced                      : No
    Color range                 : Limited
    Color primaries             : BT.709
    Transfer characteristics    : BT.709
    Matrix coefficients         : BT.709

    Audio #1
    ID                          : 2
    Format                      : AC-3
    Format/Info                 : Audio Coding 3
    Commercial name             : Dolby Digital
    Codec ID                    : A_AC3
    Duration                    : 1 h 6 min
    Bit rate mode               : Constant
    Bit rate                    : 384 kb/s
    Channel(s)                  : 2 channels
    Channel layout              : L R
    Sampling rate               : 48.0 kHz
    Frame rate                  : 31.250 FPS (1536 SPF)
    Compression mode            : Lossy
    Stream size                 : 184 MiB (4%)
    Title                       : Español latino [CinemaniaHDD]
    Language                    : Spanish
    Service kind                : Complete Main
    Default                     : Yes
    Forced                      : No

    Audio #2
    ID                          : 3
    Format                      : AC-3
    Format/Info                 : Audio Coding 3
    Commercial name             : Dolby Digital
    Codec ID                    : A_AC3
    Duration                    : 1 h 6 min
    Bit rate mode               : Constant
    Bit rate                    : 384 kb/s
    Channel(s)                  : 2 channels
    Channel layout              : L R
    Sampling rate               : 48.0 kHz
    Frame rate                  : 31.250 FPS (1536 SPF)
    Compression mode            : Lossy
    Stream size                 : 184 MiB (4%)
    Title                       : Inglés [CinemaniaHDD]
    Language                    : English
    Service kind                : Complete Main
    Default                     : No
    Forced                      : No

    Text #1
    ID                          : 4
    Format                      : UTF-8
    Codec ID                    : S_TEXT/UTF8
    Codec ID/Info               : UTF-8 Plain Text
    Duration                    : 1 h 6 min
    Bit rate                    : 113 b/s
    Count of elements           : 2015
    Stream size                 : 55.8 KiB (0%)
    Title                       : Español latino [CC] [CinemaniaHDD]
    Language                    : Spanish
    Default                     : No
    Forced                      : No

    Text #2
    ID                          : 5
    Format                      : UTF-8
    Codec ID                    : S_TEXT/UTF8
    Codec ID/Info               : UTF-8 Plain Text
    Duration                    : 1 h 6 min
    Bit rate                    : 121 b/s
    Count of elements           : 2169
    Stream size                 : 59.7 KiB (0%)
    Title                       : Inglés [CC] [CinemaniaHDD]
    Language                    : English
    Default                     : No
    Forced                      : No

     

  • Peso: 4.21 GiB

Sinopsis

En sus propias palabras, Sabathia narra su historia. A medida que se relatan los altibajos de su última temporada, Sabathia recuerda su legado como uno de los lanzadores preeminentes del juego, así como los profundos desafíos que lo formaron, incluida su larga batalla con la adicción que llegó a un punto crítico en 2015 mientras jugaba para los Yankees.

Ficha técnica

  • Titulo original: Under The Grapefruit Tree: The CC Sabathia Story
  • Fecha de lanzamiento: 22-12-2020 (United States of America)
  • Género: Sin categoría, HBO

Video trailer de la película

Enlaces de descarga

Rip de Bluray

Descargar Under The Grapefruit Tree: The CC Sabathia Story (2020) AMZN WEB-DL 1080p Latino




Aportes de DPeliculasHDmega la pass es:dpeliculashdmega.org Aportes de CinemaniaHD la pass es:cinemaniahdd.com
Guardado en : Sin categoría , HBO

Películas relacionadas

descargar Under The Grapefruit Tree: The CC Sabathia Story (2020) AMZN WEB-DL 1080p Latino WEBDL 1080p gratis, Under The Grapefruit Tree: The CC Sabathia Story (2020) AMZN WEB-DL 1080p Latino WEBDL mega 1 link, Under The Grapefruit Tree: The CC Sabathia Story (2020) AMZN WEB-DL 1080p Latino WEBDL pelicula completa, descargar Under The Grapefruit Tree: The CC Sabathia Story (2020) AMZN WEB-DL 1080p Latino WEBDL gratis en mega.

Under The Grapefruit Tree: The CC Sabathia Story (2020) AMZN WEB-DL 1080p Latino pelicula full hd, Under The Grapefruit Tree: The CC Sabathia Story (2020) AMZN WEB-DL 1080p Latino mega latino, Under The Grapefruit Tree: The CC Sabathia Story (2020) AMZN WEB-DL 1080p Latino 4k latino, Under The Grapefruit Tree: The CC Sabathia Story (2020) AMZN WEB-DL 1080p Latino pelicula completa, Under The Grapefruit Tree: The CC Sabathia Story (2020) AMZN WEB-DL 1080p Latino descargar gratis, descargar Under The Grapefruit Tree: The CC Sabathia Story (2020) AMZN WEB-DL 1080p Latino pelicula latino, Under The Grapefruit Tree: The CC Sabathia Story (2020) AMZN WEB-DL 1080p Latino 1 link mega, Under The Grapefruit Tree: The CC Sabathia Story (2020) AMZN WEB-DL 1080p Latino 1 link google drive, Under The Grapefruit Tree: The CC Sabathia Story (2020) AMZN WEB-DL 1080p Latino hd 1080p latino.
Comentarios 0