Juego de Tronos (2016) Sexta Temporada Full HD 1080p Latino – CMHDD

7.556 vistas

Información de Juego de Tronos (2016) Sexta Temporada Full HD 1080p Latino – CMHDD

Datos de la película

  • Calidad: Full 1080p
  • Audio: Se especifica abajo de la Sinopsis
  • Subtitulos: Español Latino PGS
  • Resolución: 1920x1080p
  • Formato: MKV
  • Codec: H.264
  • Encoder: Dracarys
  • Mediainfo: Clic para Mostrar Datos Ver
  • Format                      : Matroska
    Format version              : Version 4
    File size                   : 3.28 GiB
    Duration                    : 50 min 4 s
    Overall bit rate mode       : Variable
    Overall bit rate            : 9 388 kb/s
    Movie name                  : Juego De Tronos [S6E01] (2016) Full HD 1080p Latino - CMHDD
    Encoded date                : UTC 2021-11-16 23:53:39
    Writing application         : mkvmerge v17.0.0 ('Be Ur Friend') 64-bit
    Writing library             : libebml v1.3.5 + libmatroska v1.4.8

    Video
    ID                          : 1
    Format                      : AVC
    Format/Info                 : Advanced Video Codec
    Format profile              : High@L4.1
    Format settings             : CABAC / 4 Ref Frames
    Format settings, CABAC      : Yes
    Format settings, Reference  : 4 frames
    Codec ID                    : V_MPEG4/ISO/AVC
    Duration                    : 50 min 4 s
    Bit rate                    : 5 141 kb/s
    Width                       : 1 920 pixels
    Height                      : 1 080 pixels
    Display aspect ratio        : 16:9
    Frame rate mode             : Constant
    Frame rate                  : 23.976 (24000/1001) FPS
    Color space                 : YUV
    Chroma subsampling          : 4:2:0
    Bit depth                   : 8 bits
    Scan type                   : Progressive
    Bits/(Pixel*Frame)          : 0.103
    Stream size                 : 1.80 GiB (55%)
    Writing library             : x264 core 163 r3059 b684ebe0
    Encoding settings           : cabac=1 / ref=4 / deblock=1:0:0 / analyse=0x3:0x133 / me=esa / subme=10 / psy=1 / psy_rd=1.00:0.00 / mixed_ref=1 / me_range=24 / chroma_me=1 / trellis=2 / 8x8dct=1 / cqm=0 / deadzone=21,11 / fast_pskip=1 / chroma_qp_offset=-2 / threads=24 / lookahead_threads=4 / sliced_threads=0 / nr=0 / decimate=1 / interlaced=0 / bluray_compat=0 / constrained_intra=0 / bframes=8 / b_pyramid=2 / b_adapt=2 / b_bias=0 / direct=3 / weightb=1 / open_gop=0 / weightp=2 / keyint=240 / keyint_min=24 / scenecut=40 / intra_refresh=0 / rc_lookahead=60 / rc=crf / mbtree=1 / crf=20.0 / qcomp=0.60 / qpmin=0 / qpmax=69 / qpstep=4 / vbv_maxrate=62500 / vbv_bufsize=78125 / crf_max=0.0 / nal_hrd=none / filler=0 / ip_ratio=1.40 / aq=1:1.00
    Default                     : Yes
    Forced                      : No
    Color range                 : Limited
    Color primaries             : BT.709
    Transfer characteristics    : BT.709
    Matrix coefficients         : BT.709

    Audio #1
    ID                          : 2
    Format                      : AC-3
    Format/Info                 : Audio Coding 3
    Commercial name             : Dolby Digital
    Format settings             : Dolby Surround
    Codec ID                    : A_AC3
    Duration                    : 50 min 4 s
    Bit rate mode               : Constant
    Bit rate                    : 256 kb/s
    Channel(s)                  : 2 channels
    Channel layout              : L R
    Sampling rate               : 48.0 kHz
    Frame rate                  : 31.250 FPS (1536 SPF)
    Compression mode            : Lossy
    Stream size                 : 91.7 MiB (3%)
    Language                    : Spanish
    Service kind                : Complete Main
    Default                     : Yes
    Forced                      : No

    Audio #2
    ID                          : 3
    Format                      : MLP FBA 16-ch
    Format/Info                 : Meridian Lossless Packing FBA with 16-channel presentation
    Commercial name             : Dolby TrueHD with Dolby Atmos
    Codec ID                    : A_TRUEHD
    Duration                    : 50 min 4 s
    Bit rate mode               : Variable
    Bit rate                    : 3 914 kb/s
    Maximum bit rate            : 6 855 kb/s
    Channel(s)                  : 8 channels
    Channel layout              : L R C LFE Ls Rs Lb Rb
    Sampling rate               : 48.0 kHz
    Frame rate                  : 1 200.000 FPS (40 SPF)
    Compression mode            : Lossless
    Stream size                 : 1.37 GiB (42%)
    Language                    : English
    Default                     : No
    Forced                      : No
    Number of dynamic objects   : 11
    Bed channel count           : 1 channel
    Bed channel configuration   : LFE

    Text
    ID                          : 4
    Format                      : PGS
    Muxing mode                 : zlib
    Codec ID                    : S_HDMV/PGS
    Codec ID/Info               : Picture based subtitle format used on BDs/HD-DVDs
    Duration                    : 42 min 27 s
    Bit rate                    : 29.9 kb/s
    Count of elements           : 902
    Stream size                 : 9.09 MiB (0%)
    Language                    : Spanish
    Default                     : No
    Forced                      : No

  • Peso: 33.6 GiB

Sinopsis

Descargar gratis Juego de Tronos (2016) Temporada 6 Full Latino

Sinopsis capitulo 1: Jon Nieve está muerto. Daenerys Targaryen se encuentra con un poderoso khal. La reina Cersei Lannister ve a su hija de nuevo

 

 

Latino: AC3 2.0  –  Ingles: TrueHD 7.1

Ficha técnica

Video trailer de la película

Enlaces de descarga

Rip de Bluray

Descargar Juego de Tronos (2016) Sexta Temporada Full HD 1080p Latino – CMHDD




Aportes de DPeliculasHDmega la pass es:dpeliculashdmega.org Aportes de CinemaniaHD la pass es:cinemaniahdd.com

Películas relacionadas

Juego de Tronos (2016) Sexta Temporada Full HD 1080p Latino – CMHDD pelicula full hd, Juego de Tronos (2016) Sexta Temporada Full HD 1080p Latino – CMHDD mega latino, Juego de Tronos (2016) Sexta Temporada Full HD 1080p Latino – CMHDD 4k latino, Juego de Tronos (2016) Sexta Temporada Full HD 1080p Latino – CMHDD pelicula completa, Juego de Tronos (2016) Sexta Temporada Full HD 1080p Latino – CMHDD descargar gratis, descargar Juego de Tronos (2016) Sexta Temporada Full HD 1080p Latino – CMHDD pelicula latino, Juego de Tronos (2016) Sexta Temporada Full HD 1080p Latino – CMHDD 1 link mega, Juego de Tronos (2016) Sexta Temporada Full HD 1080p Latino – CMHDD 1 link google drive, Juego de Tronos (2016) Sexta Temporada Full HD 1080p Latino – CMHDD hd 1080p latino.
Comentarios 9
  • Renzo - 18 septiembre, 2017

    No puedo hacer que la cuenta regresiva de 30 segundos de la publicidad avance.

  • Javier C - 27 agosto, 2017

    Gracias mil por subir a drive 😀 se sabe la fecha para la temporada 7 que no sea web.dl????

    • dpelis - 28 agosto, 2017

      ni idea estimado

  • DREICO - 27 agosto, 2017

    lo subiran a mega ?? seria genial gracias por su trabajp

    • dpelis - 28 agosto, 2017

      no estimado

  • DidierOlivaresLiberona - 16 agosto, 2017

    Esta con problemas Google Drive….

    • dpelis - 16 agosto, 2017

      si. la mayoria descarga de el. y se satura

  • ernesto - 16 agosto, 2017

    miles de gracias lo estaba esperando

  • pablo - 16 agosto, 2017

    gracias por subir en google drive. muy rapido