Kung Fu Panda 3 (2016) Full 1080p Latino

1.119 vistas
1 estrella2 estrellas3 estrellas4 estrellas5 estrellas (Ninguna valoración todavía)
Cargando…

Información de Kung Fu Panda 3 (2016) Full 1080p Latino

Datos de la película

  • Calidad: Full 1080p
  • Audio: Español Latino AC3 5.1 BLURAY - Ingles DTS 5.1 BLURAY
  • Subtitulos: Español Latino PGS - Ingles PGS
  • Resolución: 1920x1080p
  • Formato: MKV
  • Codec: H.264
  • Encoder: Dracarys
  • Mediainfo: Clic para Mostrar Datos Ver
  • Format                                   : Matroska
    Format version                           : Version 4 / Version 2
    File size                                : 4.87 GiB
    Duration                                 : 1 h 34 min
    Overall bit rate                         : 7 341 kb/s
    Movie name                               : CinemaniaHDD.com
    Encoded date                             : UTC 2018-03-22 19:27:07 / UTC 2018-03-21T20:16:03Z
    Writing application                      : mkvmerge v15.0.0 ('Duel with the Devil') 64-bit
    Writing library                          : libebml v1.3.5 + libmatroska v1.4.5 / Lavf57.7.2

    Video
    ID                                       : 1
    Format                                   : AVC
    Format/Info                              : Advanced Video Codec
    Format profile                           : High@L4.1
    Format settings                          : CABAC / 4 Ref Frames
    Format settings, CABAC                   : Yes
    Format settings, RefFrames               : 4 frames
    Codec ID                                 : V_MPEG4/ISO/AVC
    Duration                                 : 1 h 34 min
    Bit rate                                 : 5 238 kb/s
    Width                                    : 1 920 pixels
    Height                                   : 1 080 pixels
    Display aspect ratio                     : 16:9
    Frame rate mode                          : Constant
    Frame rate                               : 23.976 (24000/1001) FPS
    Color space                              : YUV
    Chroma subsampling                       : 4:2:0
    Bit depth                                : 8 bits
    Scan type                                : Progressive
    Bits/(Pixel*Frame)                       : 0.105
    Stream size                              : 3.47 GiB (71%)
    Title                                    : Kung Fu Panda 3 (2016) Full 1080p Latino
    Writing library                          : x264 core 148 r2708 86b7198
    Encoding settings                        : cabac=1 / ref=4 / deblock=1:0:0 / analyse=0x3:0x133 / me=esa / subme=9 / psy=1 / psy_rd=1.00:0.00 / mixed_ref=1 / me_range=16 / chroma_me=1 / trellis=2 / 8x8dct=1 / cqm=0 / deadzone=21,11 / fast_pskip=1 / chroma_qp_offset=-2 / threads=34 / lookahead_threads=2 / sliced_threads=0 / nr=0 / decimate=1 / interlaced=0 / bluray_compat=0 / constrained_intra=0 / bframes=3 / b_pyramid=2 / b_adapt=2 / b_bias=0 / direct=3 / weightb=1 / open_gop=0 / weightp=2 / keyint=240 / keyint_min=24 / scenecut=40 / intra_refresh=0 / rc_lookahead=60 / rc=crf / mbtree=1 / crf=20.0 / qcomp=0.60 / qpmin=0 / qpmax=69 / qpstep=4 / vbv_maxrate=62500 / vbv_bufsize=78125 / crf_max=0.0 / nal_hrd=none / filler=0 / ip_ratio=1.40 / aq=1:1.00
    Language                                 : English
    Default                                  : Yes
    Forced                                   : No
    Color range                              : Limited
    Color primaries                          : BT.709
    Transfer characteristics                 : BT.709
    Matrix coefficients                      : BT.709
    Statistics Tags Issue                    : mkvmerge v15.0.0 ('Duel with the Devil') 64-bit 2018-03-22 19:27:07 / mkvmerge v15.0.0 ('Duel with the Devil') 64-bit 2018-03-22 19:27:07 / UTC 2018-03-21T20:16:03Z
    FromStats_BitRate                        : 5350700
    FromStats_Duration                       : 01:34:54.689000000
    FromStats_FrameCount                     : 136536
    FromStats_StreamSize                     : 3808822037

    Audio #1
    ID                                       : 2
    Format                                   : AC-3
    Format/Info                              : Audio Coding 3
    Format settings, Endianness              : Big
    Codec ID                                 : A_AC3
    Duration                                 : 1 h 34 min
    Bit rate mode                            : Constant
    Bit rate                                 : 448 kb/s
    Channel(s)                               : 6 channels
    Channel positions                        : Front: L C R, Side: L R, LFE
    Sampling rate                            : 48.0 kHz
    Frame rate                               : 31.250 FPS (1536 SPF)
    Bit depth                                : 16 bits
    Compression mode                         : Lossy
    Stream size                              : 304 MiB (6%)
    Language                                 : Spanish
    Service kind                             : Complete Main
    Default                                  : Yes
    Forced                                   : No
    Statistics Tags Issue                    : mkvmerge v15.0.0 ('Duel with the Devil') 64-bit 2018-03-22 19:27:07 / mkvmerge v15.0.0 ('Duel with the Devil') 64-bit 2018-03-22 19:27:07 / UTC 2018-03-21T20:16:03Z
    FromStats_BitRate                        : 448000
    FromStats_Duration                       : 01:34:54.720000000
    FromStats_FrameCount                     : 177960
    FromStats_StreamSize                     : 318904320

    Audio #2
    ID                                       : 3
    Format                                   : DTS
    Format/Info                              : Digital Theater Systems
    Format profile                           : ES Matrix / Core
    Mode                                     : 16
    Format settings, Endianness              : Big
    Codec ID                                 : A_DTS
    Duration                                 : 1 h 34 min
    Bit rate mode                            : Constant
    Bit rate                                 : 1 509 kb/s
    Channel(s)                               : 7 channels / 6 channels
    Channel positions                        : Front: L C R, Side: L R, Back: C, LFE / Front: L C R, Side: L R, LFE
    Sampling rate                            : 48.0 kHz
    Frame rate                               : 93.750 FPS (512 SPF)
    Bit depth                                : 24 bits
    Compression mode                         : Lossy
    Delay relative to video                  : 43 ms
    Stream size                              : 1.00 GiB (21%)
    Language                                 : English
    Default                                  : No
    Forced                                   : No
    Statistics Tags Issue                    : mkvmerge v15.0.0 ('Duel with the Devil') 64-bit 2018-03-22 19:27:07 / mkvmerge v15.0.0 ('Duel with the Devil') 64-bit 2018-03-22 19:27:07 / UTC 2018-03-21T20:16:03Z
    FromStats_BitRate                        : 1509000
    FromStats_Duration                       : 01:34:54.645000000
    FromStats_FrameCount                     : 533873
    FromStats_StreamSize                     : 1074152476

    Text #1
    ID                                       : 4
    Format                                   : PGS
    Muxing mode                              : zlib
    Codec ID                                 : S_HDMV/PGS
    Codec ID/Info                            : Picture based subtitle format used on BDs/HD-DVDs
    Language                                 : English
    Default                                  : No
    Forced                                   : No
    Statistics Tags Issue                    : mkvmerge v15.0.0 ('Duel with the Devil') 64-bit 2018-03-22 19:27:07 / mkvmerge v15.0.0 ('Duel with the Devil') 64-bit 2018-03-22 19:27:07 / UTC 2018-03-21T20:16:03Z
    FromStats_BitRate                        : 36289
    FromStats_Duration                       : 01:21:51.073000000
    FromStats_FrameCount                     : 2525
    FromStats_StreamSize                     : 22277682

    Text #2
    ID                                       : 5
    Format                                   : PGS
    Muxing mode                              : zlib
    Codec ID                                 : S_HDMV/PGS
    Codec ID/Info                            : Picture based subtitle format used on BDs/HD-DVDs
    Language                                 : Spanish
    Default                                  : No
    Forced                                   : No
    Statistics Tags Issue                    : mkvmerge v15.0.0 ('Duel with the Devil') 64-bit 2018-03-22 19:27:07 / mkvmerge v15.0.0 ('Duel with the Devil') 64-bit 2018-03-22 19:27:07 / UTC 2018-03-21T20:16:03Z
    FromStats_BitRate                        : 52666
    FromStats_Duration                       : 01:22:48.385000000
    FromStats_FrameCount                     : 2402
    FromStats_StreamSize                     : 32708681

    Menu
    00:00:00.000                             : :Chapter 1
    00:05:21.780                             : :Chapter 2
    00:08:10.240                             : :Chapter 3
    00:10:00.016                             : :Chapter 4
    00:12:26.037                             : :Chapter 5
    00:15:24.215                             : :Chapter 6
    00:19:08.230                             : :Chapter 7
    00:24:39.395                             : :Chapter 8
    00:30:17.607                             : :Chapter 9
    00:33:53.990                             : :Chapter 10
    00:36:18.259                             : :Chapter 11
    00:39:55.643                             : :Chapter 12
    00:43:32.652                             : :Chapter 13
    00:46:45.845                             : :Chapter 14
    00:51:41.181                             : :Chapter 15
    00:56:04.611                             : :Chapter 16
    00:59:48.168                             : :Chapter 17
    01:02:11.311                             : :Chapter 18
    01:05:26.965                             : :Chapter 19
    01:10:16.838                             : :Chapter 20
    01:14:06.901                             : :Chapter 21
    01:17:06.580                             : :Chapter 22
    01:20:34.788                             : :Chapter 23
    01:24:21.139                             : :Chapter 24

  • Peso: 4.87 GiB

Sinopsis

Cuando el durante mucho tiempo perdido padre de Po aparece de repente, el dúo ya reunido viaja a un paraíso secreto de pandas para conocer a montones de nuevos e hilarantes osos. Pero cuando el villano sobrenatural Kai comienza a recorrer toda China venciendo a todos los maestros de kung fu, Po deberá hacer lo imposible: aprender a entrenar a una comunidad repleta de divertidos y torpes hermanos para formar el equipo definitivo de Kung Fu Pandas.

Ficha técnica

Video trailer de la película

Enlaces de descarga

Rip de Bluray

Descargar Kung Fu Panda 3 (2016) Full 1080p Latino




Aportes de DPeliculasHDmega la pass es:dpeliculashdmega.org Aportes de CinemaniaHD la pass es:cinemaniahdd.com

Películas relacionadas

  • Godzilla (2014) 1080p Latino

    2014
    Godzilla (2014) 1080p Latino

    0.0 2h 3m 2014

    Descargar Godzilla (2014) 1080p Latino, Mega, Google Drive, Torrent. Gareth Edwards dirige este "reboot",...

    Director: Jessica Clothier

    Género: Acción

    Actores: Yuki Morita

  • Godzilla (2014) Full 1080p Latino

    2014
    Godzilla (2014) Full 1080p Latino

    4.2 2h 3m 2014

    Descargar Godzilla (2014) Full 1080p Latino, Mega, Google Drive, Torrent. Gareth Edwards dirige este...

    Director: Jessica Clothier

    Género: Acción

    Actores: Yuki Morita

  • Un pequeño favor (2018) Full 1080p Latino

    2018
    Un pequeño favor (2018) Full 1080p Latino

    5.0 1h 57m 2018

    Descargar Un pequeño favor (2018) Full 1080p Latino, Mega, Google Drive, Torrent. Stephanie es una joven...

    Director: Paul Feig

    Género: Crimen

    Actores: Zach Smadu

Comentarios 0