×

¿Problemas para descargar con Mozilla, EDGE? Deshabilita la opción "Abrir vinculos en una pestaña nueva" tal como lo muestra ésta imagen.

Kung Fu Panda 3 (2016) Full HD 1080p Latino-CMHDD

3.308 vistas

Información de Kung Fu Panda 3 (2016) Full HD 1080p Latino-CMHDD

Datos de la película

  • Calidad: Full 1080p
  • Audio: Español Latino AC3 5.1 BLURAY - Ingles DTS 5.1 BLURAY
  • Subtitulos: Español Latino SRT - Ingles SRT
  • Resolución: 1920x1080p
  • Formato: MKV
  • Codec: H.264
  • Encoder: Dracarys | CinefiloCool
  • Mediainfo: Clic para Mostrar Datos Ver
  • Kung Fu Panda 3 (2016) Full HD 1080p Latino-CMHDD.mkv
    Format                      : Matroska
    Format version              : Version 4
    File size                   : 4.85 GiB
    Duration                    : 1 h 34 min
    Overall bit rate            : 7 320 kb/s
    Movie name                  : Kung Fu Panda 3 (2016) CinemaniaHDD.Net
    Encoded date                : UTC 2024-03-17 06:09:34
    Writing application         : mkvmerge v56.1.0 ('My Friend') 64-bit
    Writing library             : libebml v1.4.2 + libmatroska v1.6.4
    Attachments                 : CINEMANIAHD.png

    Video
    ID                          : 1
    Format                      : AVC
    Format/Info                 : Advanced Video Codec
    Format profile              : High@L4.1
    Format settings             : CABAC / 4 Ref Frames
    Format settings, CABAC      : Yes
    Format settings, Reference  : 4 frames
    Codec ID                    : V_MPEG4/ISO/AVC
    Duration                    : 1 h 34 min
    Bit rate                    : 5 351 kb/s
    Width                       : 1 920 pixels
    Height                      : 1 080 pixels
    Display aspect ratio        : 16:9
    Frame rate mode             : Constant
    Frame rate                  : 23.976 (24000/1001) FPS
    Color space                 : YUV
    Chroma subsampling          : 4:2:0
    Bit depth                   : 8 bits
    Scan type                   : Progressive
    Bits/(Pixel*Frame)          : 0.108
    Stream size                 : 3.55 GiB (73%)
    Title                       : Full HD1080p [CinemaniaHDD]
    Writing library             : x264 core 148 r2708 86b7198
    Encoding settings           : cabac=1 / ref=4 / deblock=1:0:0 / analyse=0x3:0x133 / me=esa / subme=9 / psy=1 / psy_rd=1.00:0.00 / mixed_ref=1 / me_range=16 / chroma_me=1 / trellis=2 / 8x8dct=1 / cqm=0 / deadzone=21,11 / fast_pskip=1 / chroma_qp_offset=-2 / threads=34 / lookahead_threads=2 / sliced_threads=0 / nr=0 / decimate=1 / interlaced=0 / bluray_compat=0 / constrained_intra=0 / bframes=3 / b_pyramid=2 / b_adapt=2 / b_bias=0 / direct=3 / weightb=1 / open_gop=0 / weightp=2 / keyint=240 / keyint_min=24 / scenecut=40 / intra_refresh=0 / rc_lookahead=60 / rc=crf / mbtree=1 / crf=20.0 / qcomp=0.60 / qpmin=0 / qpmax=69 / qpstep=4 / vbv_maxrate=62500 / vbv_bufsize=78125 / crf_max=0.0 / nal_hrd=none / filler=0 / ip_ratio=1.40 / aq=1:1.00
    Default                     : Yes
    Forced                      : Yes
    Color range                 : Limited
    Color primaries             : BT.709
    Transfer characteristics    : BT.709
    Matrix coefficients         : BT.709

    Audio #1
    ID                          : 2
    Format                      : AC-3
    Format/Info                 : Audio Coding 3
    Commercial name             : Dolby Digital
    Codec ID                    : A_AC3
    Duration                    : 1 h 34 min
    Bit rate mode               : Constant
    Bit rate                    : 448 kb/s
    Channel(s)                  : 6 channels
    Channel layout              : L R C LFE Ls Rs
    Sampling rate               : 48.0 kHz
    Frame rate                  : 31.250 FPS (1536 SPF)
    Compression mode            : Lossy
    Stream size                 : 304 MiB (6%)
    Title                       : Español Latino [CinemaniaHDD]
    Language                    : Spanish
    Service kind                : Complete Main
    Default                     : Yes
    Forced                      : Yes

    Audio #2
    ID                          : 3
    Format                      : DTS ES
    Format/Info                 : Digital Theater Systems
    Commercial name             : DTS-ES Matrix
    Codec ID                    : A_DTS
    Duration                    : 1 h 34 min
    Bit rate mode               : Constant
    Bit rate                    : 1 509 kb/s
    Channel(s)                  : 6 channels
    Channel(s)_Original         : 7 channels
    ChannelLayout_Original      : C L R Ls Rs Cs LFE
    Sampling rate               : 48.0 kHz
    Frame rate                  : 93.750 FPS (512 SPF)
    Bit depth                   : 24 bits
    Compression mode            : Lossy
    Stream size                 : 1.00 GiB (21%)
    Title                       : Ingles [CinemaniaHDD]
    Language                    : English
    Default                     : No
    Forced                      : No

    Text #1
    ID                          : 4
    Format                      : PGS
    Muxing mode                 : zlib
    Codec ID                    : S_HDMV/PGS
    Codec ID/Info               : Picture based subtitle format used on BDs/HD-DVDs
    Duration                    : 1 h 34 min
    Bit rate                    : 31.1 kb/s
    Count of elements           : 2406
    Stream size                 : 21.0 MiB (0%)
    Title                       : Español-PGS [CinemaniaHDD]
    Language                    : Spanish
    Default                     : No
    Forced                      : No

    Text #2
    ID                          : 5
    Format                      : UTF-8
    Codec ID                    : S_TEXT/UTF8
    Codec ID/Info               : UTF-8 Plain Text
    Duration                    : 4 s 130 ms
    Bit rate                    : 5 b/s
    Count of elements           : 1
    Stream size                 : 3.00 Bytes (0%)
    Title                       : Forzados-SRT [CinemaniaHDD]
    Language                    : Spanish
    Default                     : Yes
    Forced                      : Yes

    Text #3
    ID                          : 6
    Format                      : UTF-8
    Codec ID                    : S_TEXT/UTF8
    Codec ID/Info               : UTF-8 Plain Text
    Duration                    : 1 h 34 min
    Bit rate                    : 50 b/s
    Count of elements           : 1203
    Stream size                 : 34.5 KiB (0%)
    Title                       : Español-SRT [CinemaniaHDD]
    Language                    : Spanish
    Default                     : No
    Forced                      : No

    Text #4
    ID                          : 7
    Format                      : UTF-8
    Codec ID                    : S_TEXT/UTF8
    Codec ID/Info               : UTF-8 Plain Text
    Duration                    : 1 h 32 min
    Bit rate                    : 84 b/s
    Count of elements           : 1777
    Stream size                 : 57.6 KiB (0%)
    Title                       : Ingles-SRT [CinemaniaHDD]
    Language                    : English
    Default                     : No
    Forced                      : No

    Menu
    00:00:00.000                : Oogway's Legacy
    00:05:21.779                : Hungry for Lunch
    00:08:10.239                : The Power of Chi
    00:10:00.016                : The Arrival of Kai
    00:12:26.036                : A New Father
    00:15:24.214                : The Hall of Heroes
    00:19:08.230                : The Legend of Kai
    00:24:39.394                : The Panda Village
    00:30:17.607                : Mei Mei's Ribbon Dance
    00:33:53.990                : Jaded
    00:36:18.259                : How To Be a Panda
    00:39:55.643                : Portrait of Mom
    00:43:32.651                : Po Belongs
    00:46:45.844                : Kai is Closer
    00:51:41.181                : Two Fathers
    00:56:04.611                : The Battle of Legends
    00:59:48.167                : The Spirit Realm
    01:02:11.352                : The Dragon Warrior
    01:05:26.964                : Closing Credits
    01:10:16.837                : Passing the Torch
    01:14:06.900                : Father and Son
    01:17:06.580                : Kung Fu Fighting (Celebration Time)
    01:20:34.788                : Try
    01:24:21.181                : Kung Fu Fighting

  • Peso: 4.85 GiB

Sinopsis

Descargar Kung Fu Panda 3 (2016) Full HD 1080p Latino-CMHDD. Cuando el durante mucho tiempo perdido padre de Po aparece de repente, el dúo ya reunido viaja a un paraíso secreto de pandas para conocer a montones de nuevos e hilarantes osos. Pero cuando el villano sobrenatural Kai comienza a recorrer toda China venciendo a todos los maestros de kung fu, Po deberá hacer lo imposible: aprender a entrenar a una comunidad repleta de divertidos y torpes hermanos para formar el equipo definitivo de Kung Fu Pandas.

RESUBIDA!!!

Ficha técnica

Video trailer de la película

Enlaces de descarga

Rip de Bluray

Descargar Kung Fu Panda 3 (2016) Full HD 1080p Latino-CMHDD




Aportes de DPeliculasHDmega la pass es:dpeliculashdmega.org Aportes de CinemaniaHD la pass es:cinemaniahdd.com Aportes recientes:cinemaniahdd.net

Películas relacionadas

descargar Kung Fu Panda 3 (2016) Full HD 1080p Latino-CMHDD Full 1080p 1080p gratis, Kung Fu Panda 3 (2016) Full HD 1080p Latino-CMHDD Full 1080p mega 1 link, Kung Fu Panda 3 (2016) Full HD 1080p Latino-CMHDD Full 1080p pelicula completa, descargar Kung Fu Panda 3 (2016) Full HD 1080p Latino-CMHDD Full 1080p gratis en mega.

Kung Fu Panda 3 (2016) Full HD 1080p Latino-CMHDD pelicula full hd, Kung Fu Panda 3 (2016) Full HD 1080p Latino-CMHDD mega latino, Kung Fu Panda 3 (2016) Full HD 1080p Latino-CMHDD 4k latino, Kung Fu Panda 3 (2016) Full HD 1080p Latino-CMHDD pelicula completa, Kung Fu Panda 3 (2016) Full HD 1080p Latino-CMHDD descargar gratis, descargar Kung Fu Panda 3 (2016) Full HD 1080p Latino-CMHDD pelicula latino, Kung Fu Panda 3 (2016) Full HD 1080p Latino-CMHDD 1 link mega, Kung Fu Panda 3 (2016) Full HD 1080p Latino-CMHDD 1 link google drive, Kung Fu Panda 3 (2016) Full HD 1080p Latino-CMHDD hd 1080p latino.
Comentarios 0