×

¿Problemas para descargar con Mozilla, EDGE? Deshabilita la opción "Abrir vinculos en una pestaña nueva" tal como lo muestra ésta imagen.

Young Sheldon (2024) Séptima Temporada AMZN WEB-DL 1080p Latino

249 vistas

Información de Young Sheldon (2024) Séptima Temporada AMZN WEB-DL 1080p Latino

Datos de la película

  • Calidad: 1080p
  • Audio: Español Latino AC3 5.1 WEB-DL - Ingles AC3 5.1 WEB-DL
  • Subtitulos: Español Latino SRT- FORZADOS SRT
  • Resolución: 1920x1080
  • Formato: MKV
  • Codec: H.264
  • Encoder: cinemaniahdd
  • Mediainfo: Clic para Mostrar Datos Ver
  • Young Sheldon T07E06 AMZN WEB-DL 1080p Latino [CNMNHDD].mkv
    Format                      : Matroska
    Format version              : Version 4
    File size                   : 1.35 GiB
    Duration                    : 20 min 22 s
    Overall bit rate            : 9 485 kb/s
    Movie name                  : Young Sheldon S07E06 - Bautistas, Católicos y un Intento De Ahogamiento [1080p] - CinemaniaHDD.Net
    Encoded date                : UTC 2024-04-19 00:39:21
    Writing application         : mkvmerge v56.1.0 ('My Friend') 64-bit
    Writing library             : libebml v1.4.2 + libmatroska v1.6.4

    Video
    ID                          : 1
    Format                      : AVC
    Format/Info                 : Advanced Video Codec
    Format profile              : High@L4
    Format settings             : CABAC / 4 Ref Frames
    Format settings, CABAC      : Yes
    Format settings, Reference  : 4 frames
    Codec ID                    : V_MPEG4/ISO/AVC
    Duration                    : 20 min 22 s
    Bit rate mode               : Constant
    Bit rate                    : 7 562 kb/s
    Nominal bit rate            : 10 000 kb/s
    Width                       : 1 920 pixels
    Height                      : 1 080 pixels
    Display aspect ratio        : 16:9
    Frame rate mode             : Constant
    Frame rate                  : 23.976 (24000/1001) FPS
    Color space                 : YUV
    Chroma subsampling          : 4:2:0
    Bit depth                   : 8 bits
    Scan type                   : Progressive
    Bits/(Pixel*Frame)          : 0.152
    Stream size                 : 1.08 GiB (80%)
    Title                       : CinemaniaHDD.Net
    Default                     : Yes
    Forced                      : No
    Color range                 : Limited
    Color primaries             : BT.709
    Transfer characteristics    : BT.709
    Matrix coefficients         : BT.709

    Audio #1
    ID                          : 2
    Format                      : AC-3
    Format/Info                 : Audio Coding 3
    Commercial name             : Dolby Digital
    Codec ID                    : A_AC3
    Duration                    : 20 min 22 s
    Bit rate mode               : Constant
    Bit rate                    : 640 kb/s
    Channel(s)                  : 6 channels
    Channel layout              : L R C LFE Ls Rs
    Sampling rate               : 48.0 kHz
    Frame rate                  : 31.250 FPS (1536 SPF)
    Compression mode            : Lossy
    Stream size                 : 93.2 MiB (7%)
    Title                       : Español Latino [CinemaniaHDD]
    Language                    : Spanish
    Service kind                : Complete Main
    Default                     : Yes
    Forced                      : No

    Audio #2
    ID                          : 3
    Format                      : E-AC-3
    Format/Info                 : Enhanced AC-3
    Commercial name             : Dolby Digital Plus
    Codec ID                    : A_EAC3
    Duration                    : 20 min 22 s
    Bit rate mode               : Constant
    Bit rate                    : 640 kb/s
    Channel(s)                  : 6 channels
    Channel layout              : L R C LFE Ls Rs
    Sampling rate               : 48.0 kHz
    Frame rate                  : 31.250 FPS (1536 SPF)
    Compression mode            : Lossy
    Stream size                 : 93.2 MiB (7%)
    Title                       : Español Latino / EAC3 [CinemaniaHDD]
    Language                    : Spanish
    Service kind                : Complete Main
    Default                     : No
    Forced                      : No

    Audio #3
    ID                          : 4
    Format                      : E-AC-3
    Format/Info                 : Enhanced AC-3
    Commercial name             : Dolby Digital Plus
    Codec ID                    : A_EAC3
    Duration                    : 20 min 22 s
    Bit rate mode               : Constant
    Bit rate                    : 640 kb/s
    Channel(s)                  : 6 channels
    Channel layout              : L R C LFE Ls Rs
    Sampling rate               : 48.0 kHz
    Frame rate                  : 31.250 FPS (1536 SPF)
    Compression mode            : Lossy
    Stream size                 : 93.2 MiB (7%)
    Title                       : Inglés (Original) [CinemaniaHDD]
    Language                    : English
    Service kind                : Complete Main
    Default                     : No
    Forced                      : No

    Text #1
    ID                          : 5
    Format                      : UTF-8
    Codec ID                    : S_TEXT/UTF8
    Codec ID/Info               : UTF-8 Plain Text
    Duration                    : 1 s 42 ms
    Bit rate                    : 145 b/s
    Count of elements           : 1
    Stream size                 : 19.0 Bytes (0%)
    Title                       : Forzados [CinemaniaHDD]
    Language                    : Spanish
    Default                     : Yes
    Forced                      : Yes

    Text #2
    ID                          : 6
    Format                      : UTF-8
    Codec ID                    : S_TEXT/UTF8
    Codec ID/Info               : UTF-8 Plain Text
    Duration                    : 20 min 13 s
    Bit rate                    : 82 b/s
    Count of elements           : 479
    Stream size                 : 12.2 KiB (0%)
    Title                       : Español Latino [CinemaniaHDD]
    Language                    : Spanish
    Default                     : No
    Forced                      : No

    Text #3
    ID                          : 7
    Format                      : UTF-8
    Codec ID                    : S_TEXT/UTF8
    Codec ID/Info               : UTF-8 Plain Text
    Duration                    : 19 min 53 s
    Bit rate                    : 99 b/s
    Count of elements           : 487
    Stream size                 : 14.4 KiB (0%)
    Title                       : Inglés [CinemaniaHDD]
    Language                    : English
    Default                     : No
    Forced                      : No

     

  • Peso: 1.35 GiB c/u Aprox ---- ?? GiB in 14 Chapters.

Sinopsis

El excepcional pero incomprendido Sheldon Cooper, de 9 años, se salta cuatro grados para comenzar la escuela secundaria junto con su hermano mayor

Ficha técnica

Video trailer de la película

Enlaces de descarga

Rip de Bluray

Descargar Young Sheldon (2024) Séptima Temporada AMZN WEB-DL 1080p Latino




Aportes de DPeliculasHDmega la pass es:dpeliculashdmega.org Aportes de CinemaniaHD la pass es:cinemaniahdd.com Aportes recientes:cinemaniahdd.net
Guardado en : Comedia , Familia , Series

Películas relacionadas

descargar Young Sheldon (2024) Séptima Temporada AMZN WEB-DL 1080p Latino 1080p 1080p gratis, Young Sheldon (2024) Séptima Temporada AMZN WEB-DL 1080p Latino 1080p mega 1 link, Young Sheldon (2024) Séptima Temporada AMZN WEB-DL 1080p Latino 1080p serie completa, descargar Young Sheldon (2024) Séptima Temporada AMZN WEB-DL 1080p Latino 1080p gratis en mega.

Young Sheldon (2024) Séptima Temporada AMZN WEB-DL 1080p Latino pelicula full hd, Young Sheldon (2024) Séptima Temporada AMZN WEB-DL 1080p Latino mega latino, Young Sheldon (2024) Séptima Temporada AMZN WEB-DL 1080p Latino 4k latino, Young Sheldon (2024) Séptima Temporada AMZN WEB-DL 1080p Latino pelicula completa, Young Sheldon (2024) Séptima Temporada AMZN WEB-DL 1080p Latino descargar gratis, descargar Young Sheldon (2024) Séptima Temporada AMZN WEB-DL 1080p Latino pelicula latino, Young Sheldon (2024) Séptima Temporada AMZN WEB-DL 1080p Latino 1 link mega, Young Sheldon (2024) Séptima Temporada AMZN WEB-DL 1080p Latino 1 link google drive, Young Sheldon (2024) Séptima Temporada AMZN WEB-DL 1080p Latino hd 1080p latino.
Comentarios 0