×

¿Problemas para descargar con Mozilla, EDGE? Deshabilita la opción "Abrir vinculos en una pestaña nueva" tal como lo muestra ésta imagen.

Inception (2010) REMUX 4K HDR Latino – CMHDD

764 vistas

Información de Inception (2010) REMUX 4K HDR Latino – CMHDD

Datos de la película

  • Calidad: 4K HDR
  • Audio: Español Latino AC3 5.1 BLURAY - Ingles DTS 5.1 BLURAY
  • Subtitulos: Español Latino PGS
  • Resolución: 3840x2160p
  • Formato: MKV
  • Codec: H.264
  • Encoder: Dracarys
  • Mediainfo: Clic para Mostrar Datos Ver
  • Format                      : Matroska
    Format version              : Version 4
    File size                   : 65.9 GiB
    Duration                    : 2 h 28 min
    Overall bit rate mode       : Variable
    Overall bit rate            : 63.7 Mb/s
    Movie name                  : Inception (2010) REMUX 4K HDR Latino - CMHDD
    Encoded date                : UTC 2021-03-20 21:43:21
    Writing application         : mkvmerge v51.0.0 ('I Wish') 64-bit
    Writing library             : libebml v1.4.0 + libmatroska v1.6.2
    Cover                       : Yes
    Attachments                 : cover.jpg

    Video
    ID                          : 1
    ID in the original source m : 4113 (0x1011)
    Format                      : HEVC
    Format/Info                 : High Efficiency Video Coding
    Format profile              : Main 10@L5.1@High
    HDR format                  : SMPTE ST 2086, HDR10 compatible
    Codec ID                    : V_MPEGH/ISO/HEVC
    Duration                    : 2 h 28 min
    Bit rate                    : 59.2 Mb/s
    Width                       : 3 840 pixels
    Height                      : 2 160 pixels
    Display aspect ratio        : 16:9
    Frame rate mode             : Constant
    Frame rate                  : 23.976 (24000/1001) FPS
    Color space                 : YUV
    Chroma subsampling          : 4:2:0 (Type 2)
    Bit depth                   : 10 bits
    Bits/(Pixel*Frame)          : 0.298
    Stream size                 : 61.3 GiB (93%)
    Writing library             : ATEME Titan File 3.8.3 (4.8.3.0)        
    Default                     : Yes
    Forced                      : No
    Color range                 : Limited
    Color primaries             : BT.2020
    Transfer characteristics    : PQ
    Matrix coefficients         : BT.2020 non-constant
    Mastering display color pri : Display P3
    Mastering display luminance : min: 0.0050 cd/m2, max: 4000 cd/m2
    Maximum Content Light Level : 1538 cd/m2
    Maximum Frame-Average Light : 308 cd/m2
    Original source medium      : Blu-ray

    Audio #1
    ID                          : 2
    ID in the original source m : 4361 (0x1109)
    Format                      : AC-3
    Format/Info                 : Audio Coding 3
    Commercial name             : Dolby Digital
    Codec ID                    : A_AC3
    Duration                    : 2 h 28 min
    Bit rate mode               : Constant
    Bit rate                    : 640 kb/s
    Channel(s)                  : 6 channels
    Channel layout              : L R C LFE Ls Rs
    Sampling rate               : 48.0 kHz
    Frame rate                  : 31.250 FPS (1536 SPF)
    Compression mode            : Lossy
    Stream size                 : 678 MiB (1%)
    Language                    : Spanish
    Service kind                : Complete Main
    Default                     : Yes
    Forced                      : No
    Original source medium      : Blu-ray

    Audio #2
    ID                          : 3
    ID in the original source m : 4352 (0x1100)
    Format                      : DTS XLL
    Format/Info                 : Digital Theater Systems
    Commercial name             : DTS-HD Master Audio
    Codec ID                    : A_DTS
    Duration                    : 2 h 28 min
    Bit rate mode               : Variable
    Bit rate                    : 3 821 kb/s
    Channel(s)                  : 6 channels
    Channel layout              : C L R Ls Rs LFE
    Sampling rate               : 48.0 kHz
    Frame rate                  : 93.750 FPS (512 SPF)
    Bit depth                   : 24 bits
    Compression mode            : Lossless
    Stream size                 : 3.95 GiB (6%)
    Language                    : English
    Default                     : No
    Forced                      : No
    Original source medium      : Blu-ray

    Text
    ID                          : 4
    ID in the original source m : 4780 (0x12AC)
    Format                      : PGS
    Muxing mode                 : zlib
    Codec ID                    : S_HDMV/PGS
    Codec ID/Info               : Picture based subtitle format used on BDs/HD-DVDs
    Duration                    : 2 h 26 min
    Bit rate                    : 27.0 kb/s
    Count of elements           : 3102
    Stream size                 : 28.3 MiB (0%)
    Language                    : Spanish
    Default                     : No
    Forced                      : No
    Original source medium      : Blu-ray

    Menu
    00:00:00.000                : en:Chapter 01
    00:11:41.742                : en:Chapter 02
    00:21:37.337                : en:Chapter 03
    00:31:20.336                : en:Chapter 04
    00:41:22.229                : en:Chapter 05
    00:51:13.737                : en:Chapter 06
    01:01:21.552                : en:Chapter 07
    01:10:29.683                : en:Chapter 08
    01:22:15.597                : en:Chapter 09
    01:31:52.590                : en:Chapter 10
    01:40:38.532                : en:Chapter 11
    01:51:22.175                : en:Chapter 12
    02:00:54.413                : en:Chapter 13
    02:10:09.051                : en:Chapter 14
    02:20:55.447                : en:Chapter 15

  • Peso: 65.9 GiB

Sinopsis

Dom Cobb es un ladrón hábil, el mejor de todos, especializado en el peligroso arte de extracción: el robo de secretos valiosos desde las profundidades del subconsciente durante el estado de sueño cuando la mente está más vulnerable. Esta habilidad excepcional de Cobb le ha hecho un jugador codiciado en el traicionero nuevo mundo de espionaje corporativo, pero al mismo tiempo, le ha convertido en un fugitivo internacional y ha tenido que sacrificar todo que le importaba. Ahora a Cobb se le ofrece una oportunidad para redimirse. Con un último trabajo podría recuperar su vida anterior, pero solamente si logra lo imposible.

Ficha técnica

Video trailer de la película

Enlaces de descarga

Rip de Bluray

Descargar Inception (2010) REMUX 4K HDR Latino – CMHDD


Aportes de DPeliculasHDmega la pass es:dpeliculashdmega.org Aportes de CinemaniaHD la pass es:cinemaniahdd.com Aportes recientes:cinemaniahdd.net
Guardado en : Acción , Aventura , Ciencia ficción

Películas relacionadas

  • The Shift (2023) AMZN WEB-DL 1080p Latino

    The Shift (2023) AMZN WEB-DL 1080p Latino

    2023
    The Shift (2023) AMZN WEB-DL 1080p Latino

    1h 53m 2023

    Descargar The Shift (2023) AMZN WEB-DL 1080p Latino. Kevin viaja a través de los mundos para reunirse...

    Director: Brock Heasley

    Género: Ciencia ficción

    Actores: Teck

  • Godzilla: Minus One (2023) 1080p SUB-CMHDD

    Godzilla: Minus One (2023) 1080p SUB-CMHDD

    2023
    Godzilla: Minus One (2023) 1080p SUB-CMHDD

    2h 5m 2023

    Descargar Godzilla: Minus One (2023) 1080p SUB-CMHDD. En el Japón de la posguerra surge un nuevo terror....

    Director: 山崎貴

    Género: Acción

    Actores: 鶴田翔

  • Kung Fu Panda 4 (2024) 1080p Latino-CMHDD

    Kung Fu Panda 4 (2024) 1080p Latino-CMHDD

    2024
    Kung Fu Panda 4 (2024) 1080p Latino-CMHDD

    1h 34m 2024

    Descargar Kung Fu Panda 4 (2024) 1080p Latino-CMHDD. Po se prepara para ser el líder espiritual del...

    Director: Stephanie Ma Stine

    Género: Acción

    Actores: Viola Davis

  • Kung Fu Panda 4 (2024) Full HD 1080p Latino-CMHDD

    Kung Fu Panda 4 (2024) Full HD 1080p Latino-CMHDD

    2024
    Kung Fu Panda 4 (2024) Full HD 1080p Latino-CMHDD

    1h 34m 2024

    Descargar Kung Fu Panda 4 (2024) Full HD 1080p Latino-CMHDD. Po se prepara para ser el líder espiritual...

    Director: Stephanie Ma Stine

    Género: Acción

    Actores: Viola Davis

  • Kung Fu Panda 4 (2024) REMUX 1080p Latino-CMHDD

    Kung Fu Panda 4 (2024) REMUX 1080p Latino-CMHDD

    2024
    Kung Fu Panda 4 (2024) REMUX 1080p Latino-CMHDD

    1h 34m 2024

    Descargar Kung Fu Panda 4 (2024) REMUX 1080p Latino-CMHDD. Po se prepara para ser el líder espiritual...

    Director: Stephanie Ma Stine

    Género: Acción

    Actores: Viola Davis

descargar Inception (2010) REMUX 4K HDR Latino – CMHDD 4K HDR 1080p gratis, Inception (2010) REMUX 4K HDR Latino – CMHDD 4K HDR mega 1 link, Inception (2010) REMUX 4K HDR Latino – CMHDD 4K HDR pelicula completa, descargar Inception (2010) REMUX 4K HDR Latino – CMHDD 4K HDR gratis en mega.

Inception (2010) REMUX 4K HDR Latino – CMHDD pelicula full hd, Inception (2010) REMUX 4K HDR Latino – CMHDD mega latino, Inception (2010) REMUX 4K HDR Latino – CMHDD 4k latino, Inception (2010) REMUX 4K HDR Latino – CMHDD pelicula completa, Inception (2010) REMUX 4K HDR Latino – CMHDD descargar gratis, descargar Inception (2010) REMUX 4K HDR Latino – CMHDD pelicula latino, Inception (2010) REMUX 4K HDR Latino – CMHDD 1 link mega, Inception (2010) REMUX 4K HDR Latino – CMHDD 1 link google drive, Inception (2010) REMUX 4K HDR Latino – CMHDD hd 1080p latino.
Comentarios 0