×

¿Problemas para descargar con Mozilla, EDGE? Deshabilita la opción "Abrir vinculos en una pestaña nueva" tal como lo muestra ésta imagen.

Hunter Killer (2018) REMUX 4K HDR Latino – CMHDD

218 vistas

Información de Hunter Killer (2018) REMUX 4K HDR Latino – CMHDD

Datos de la película

  • Calidad: 4K HDR
  • Audio: Se especifica abajo de la Sinopsis
  • Subtitulos: Español Latino PGS
  • Resolución: 3840x2160p
  • Formato: MKV
  • Codec: H.264
  • Encoder: Dracarys
  • Mediainfo: Clic para Mostrar Datos Ver
  • Format                      : Matroska
    Format version              : Version 4
    File size                   : 63.5 GiB
    Duration                    : 2 h 1 min
    Overall bit rate mode       : Variable
    Overall bit rate            : 74.7 Mb/s
    Movie name                  : Hunter Killer (2018) REMUX 4K HDR Latino - CMHDD
    Encoded date                : UTC 2023-03-17 22:29:49
    Writing application         : mkvmerge v47.0.0 ('Black Flag') 64-bit
    Writing library             : libebml v1.3.10 + libmatroska v1.5.2

    Video
    ID                          : 1
    ID in the original source m : 4113 (0x1011)
    Format                      : HEVC
    Format/Info                 : High Efficiency Video Coding
    Format profile              : Main 10@L5.1@High
    HDR format                  : SMPTE ST 2086, HDR10 compatible
    Codec ID                    : V_MPEGH/ISO/HEVC
    Duration                    : 2 h 1 min
    Bit rate                    : 69.8 Mb/s
    Width                       : 3 840 pixels
    Height                      : 2 160 pixels
    Display aspect ratio        : 16:9
    Frame rate mode             : Constant
    Frame rate                  : 23.976 (24000/1001) FPS
    Color space                 : YUV
    Chroma subsampling          : 4:2:0 (Type 2)
    Bit depth                   : 10 bits
    Bits/(Pixel*Frame)          : 0.351
    Stream size                 : 59.3 GiB (93%)
    Language                    : English
    Default                     : No
    Forced                      : No
    Color range                 : Limited
    Color primaries             : BT.2020
    Transfer characteristics    : PQ
    Matrix coefficients         : BT.2020 non-constant
    Mastering display color pri : Display P3
    Mastering display luminance : min: 0.0001 cd/m2, max: 1000 cd/m2
    Maximum Content Light Level : 1000 cd/m2
    Maximum Frame-Average Light : 471 cd/m2
    Original source medium      : Blu-ray

    Audio #1
    ID                          : 2
    Format                      : DTS XLL
    Format/Info                 : Digital Theater Systems
    Commercial name             : DTS-HD Master Audio
    Codec ID                    : A_DTS
    Duration                    : 2 h 1 min
    Bit rate mode               : Variable
    Bit rate                    : 4 249 kb/s
    Channel(s)                  : 8 channels
    Channel layout              : C L R LFE Lb Rb Lss Rss
    Sampling rate               : 48.0 kHz
    Frame rate                  : 93.750 FPS (512 SPF)
    Bit depth                   : 24 bits
    Compression mode            : Lossless
    Stream size                 : 3.61 GiB (6%)
    Title                       : DTS-HD MA 7.1
    Language                    : English
    Default                     : No
    Forced                      : No

    Audio #2
    ID                          : 3
    ID in the original source m : 4352 (0x1100)
    Format                      : AC-3
    Format/Info                 : Audio Coding 3
    Commercial name             : Dolby Digital
    Format settings             : Dolby Surround EX
    Codec ID                    : A_AC3
    Duration                    : 2 h 1 min
    Bit rate mode               : Constant
    Bit rate                    : 224 kb/s
    Channel(s)                  : 6 channels
    Channel layout              : L R C LFE Ls Rs
    Sampling rate               : 48.0 kHz
    Frame rate                  : 31.250 FPS (1536 SPF)
    Compression mode            : Lossy
    Stream size                 : 195 MiB (0%)
    Title                       : DD 5.1
    Language                    : English
    Service kind                : Complete Main
    Default                     : No
    Forced                      : No
    Original source medium      : Blu-ray

    Audio #3
    ID                          : 4
    ID in the original source m : 4353 (0x1101)
    Format                      : AC-3
    Format/Info                 : Audio Coding 3
    Commercial name             : Dolby Digital
    Codec ID                    : A_AC3
    Duration                    : 2 h 1 min
    Bit rate mode               : Constant
    Bit rate                    : 448 kb/s
    Channel(s)                  : 6 channels
    Channel layout              : L R C LFE Ls Rs
    Sampling rate               : 48.0 kHz
    Frame rate                  : 31.250 FPS (1536 SPF)
    Compression mode            : Lossy
    Stream size                 : 390 MiB (1%)
    Title                       : DD 5.1
    Language                    : Spanish
    Service kind                : Complete Main
    Default                     : Yes
    Forced                      : No
    Original source medium      : Blu-ray

    Text #1
    ID                          : 5
    ID in the original source m : 4769 (0x12A1)
    Format                      : PGS
    Muxing mode                 : zlib
    Codec ID                    : S_HDMV/PGS
    Codec ID/Info               : Picture based subtitle format used on BDs/HD-DVDs
    Duration                    : 1 h 50 min
    Bit rate                    : 32.8 kb/s
    Frame rate                  : 0.313 FPS
    Count of elements           : 2075
    Stream size                 : 25.9 MiB (0%)
    Language                    : Spanish
    Default                     : No
    Forced                      : No
    Original source medium      : Blu-ray

    Text #2
    ID                          : 6
    ID in the original source m : 4769 (0x12A1)
    Format                      : PGS
    Muxing mode                 : zlib
    Codec ID                    : S_HDMV/PGS
    Codec ID/Info               : Picture based subtitle format used on BDs/HD-DVDs
    Duration                    : 1 h 31 min
    Bit rate                    : 674 b/s
    Frame rate                  : 0.005 FPS
    Count of elements           : 27
    Stream size                 : 450 KiB (0%)
    Title                       : FORCED
    Language                    : Spanish
    Default                     : Yes
    Forced                      : No
    Original source medium      : Blu-ray

    Menu
    00:00:00.000                : en:Chapter 01
    00:06:19.629                : en:Chapter 02
    00:14:56.353                : en:Chapter 03
    00:20:00.365                : en:Chapter 04
    00:28:19.280                : en:Chapter 05
    00:38:31.100                : en:Chapter 06
    00:46:28.827                : en:Chapter 07
    00:54:15.460                : en:Chapter 08
    01:00:25.872                : en:Chapter 09
    01:09:39.592                : en:Chapter 10
    01:15:48.669                : en:Chapter 11
    01:23:29.087                : en:Chapter 12
    01:30:17.453                : en:Chapter 13
    01:39:23.248                : en:Chapter 14
    01:44:53.829                : en:Chapter 15
    01:51:36.147                : en:Chapter 16

  • Peso: 63.5 GiB

Sinopsis

Captain Glass of the USS Arkansas discovers that a coup d’état is taking place in Russia, so he and his crew join an elite group working on the ground to prevent a war.

Ficha técnica

Video trailer de la película

Enlaces de descarga

Rip de Bluray

Descargar Hunter Killer (2018) REMUX 4K HDR Latino – CMHDD


Aportes de DPeliculasHDmega la pass es:dpeliculashdmega.org Aportes de CinemaniaHD la pass es:cinemaniahdd.com Aportes recientes:cinemaniahdd.net
Guardado en : Action , Thriller

Películas relacionadas

  • Encierro (2023) NF WEB-DL 1080p Latino

    Encierro (2023) NF WEB-DL 1080p Latino

    2023
    Encierro (2023) NF WEB-DL 1080p Latino

    1h 36m 2023

    Descargar Encierro (2023) NF WEB-DL 1080p Latino. Un thriller romántico que enfrenta a Lina, recién...

    Director: Stephen Carney

    Género: Netflix

    Actores: Toby Ryan

  • Blue Beetle (2023) Full HD 1080p Latino-CMHDD

    Blue Beetle (2023) Full HD 1080p Latino-CMHDD

    2023
    Blue Beetle (2023) Full HD 1080p Latino-CMHDD

    2h 8m 2023

    Descargar Blue Beetle (2023) Full HD 1080p Latino-CMHDD. Jaime Reyes, recién licenciado, regresa a casa...

    Director: K.C. Hodenfield

    Género: Action

    Actores: Yuli Zorrilla

  • Carga Máxima (2023) NF WEB-DL 1080p Latino

    Carga Máxima (2023) NF WEB-DL 1080p Latino

    2023
    Carga Máxima (2023) NF WEB-DL 1080p Latino

    1h 40m 2023

    Descargar Carga Máxima (2023) NF WEB-DL 1080p Latino. Rainha (Sheron Menezes) y Roger (Thiago Martins)...

    Director: Tomás Portella

    Género: Action

    Actores: Vitória Valentin

  • Original Sin (2001) REMUX 1080p Latino – CMHDD

    Original Sin (2001) REMUX 1080p Latino – CMHDD

    2001
    Original Sin (2001) REMUX 1080p Latino – CMHDD

    1h 58m 2001

    A young man is plunged into a life of subterfuge, deceit and mistaken identity in pursuit of a femme...

    Director: Michael Cristofer

    Género: Drama

    Actores: Thomas Jane

  • Superman III (1983) REMUX 4K HDR Latino – CMHDD

    Superman III (1983) REMUX 4K HDR Latino – CMHDD

    1983
    Superman III (1983) REMUX 4K HDR Latino – CMHDD

    2h 5m 1983

    Aiming to defeat the Man of Steel, wealthy executive Ross Webster hires bumbling but brilliant Gus Gorman...

    Director: Richard Lester

    Género: Action

    Actores: Terry Camilleri

descargar Hunter Killer (2018) REMUX 4K HDR Latino – CMHDD 4K HDR 1080p gratis, Hunter Killer (2018) REMUX 4K HDR Latino – CMHDD 4K HDR mega 1 link, Hunter Killer (2018) REMUX 4K HDR Latino – CMHDD 4K HDR pelicula completa, descargar Hunter Killer (2018) REMUX 4K HDR Latino – CMHDD 4K HDR gratis en mega.

Hunter Killer (2018) REMUX 4K HDR Latino – CMHDD pelicula full hd, Hunter Killer (2018) REMUX 4K HDR Latino – CMHDD mega latino, Hunter Killer (2018) REMUX 4K HDR Latino – CMHDD 4k latino, Hunter Killer (2018) REMUX 4K HDR Latino – CMHDD pelicula completa, Hunter Killer (2018) REMUX 4K HDR Latino – CMHDD descargar gratis, descargar Hunter Killer (2018) REMUX 4K HDR Latino – CMHDD pelicula latino, Hunter Killer (2018) REMUX 4K HDR Latino – CMHDD 1 link mega, Hunter Killer (2018) REMUX 4K HDR Latino – CMHDD 1 link google drive, Hunter Killer (2018) REMUX 4K HDR Latino – CMHDD hd 1080p latino.
Comentarios 0