×

¿Problemas para descargar con Mozilla, EDGE? Deshabilita la opción "Abrir vinculos en una pestaña nueva" tal como lo muestra ésta imagen.

House at the End of the Street (2012) Full HD 1080p Latino – CMHDD

291 vistas

Información de House at the End of the Street (2012) Full HD 1080p Latino – CMHDD

Datos de la película

  • Calidad: Full 1080p
  • Audio: Se especifica abajo de la Sinopsis
  • Subtitulos: Español Latino SRT
  • Resolución: 1920x1080p
  • Formato: MKV
  • Codec: H.264
  • Encoder: Dracarys
  • Mediainfo: Clic para Mostrar Datos Ver
  • Format                      : Matroska
    Format version              : Version 4
    File size                   : 6.93 GiB
    Duration                    : 1 h 40 min
    Overall bit rate            : 9 839 kb/s
    Movie name                  : House at the End of the Street (2012) Full HD 1080p Latino - CMHDD
    Encoded date                : UTC 2020-11-17 23:31:53
    Writing application         : mkvmerge v51.0.0 ('I Wish') 64-bit
    Writing library             : libebml v1.4.0 + libmatroska v1.6.2

    Video
    ID                          : 1
    Format                      : AVC
    Format/Info                 : Advanced Video Codec
    Format profile              : High@L4.1
    Format settings             : CABAC / 4 Ref Frames
    Format settings, CABAC      : Yes
    Format settings, Reference  : 4 frames
    Codec ID                    : V_MPEG4/ISO/AVC
    Duration                    : 1 h 40 min
    Bit rate                    : 8 538 kb/s
    Width                       : 1 920 pixels
    Height                      : 1 080 pixels
    Display aspect ratio        : 16:9
    Frame rate mode             : Constant
    Frame rate                  : 23.976 (24000/1001) FPS
    Color space                 : YUV
    Chroma subsampling          : 4:2:0
    Bit depth                   : 8 bits
    Scan type                   : Progressive
    Bits/(Pixel*Frame)          : 0.172
    Stream size                 : 6.01 GiB (87%)
    Writing library             : x264 core 157 r2935 545de2f
    Encoding settings           : cabac=1 / ref=4 / deblock=1:0:0 / analyse=0x3:0x133 / me=tesa / subme=11 / psy=1 / psy_rd=1.00:0.00 / mixed_ref=1 / me_range=24 / chroma_me=1 / trellis=2 / 8x8dct=1 / cqm=0 / deadzone=21,11 / fast_pskip=0 / chroma_qp_offset=-2 / threads=24 / lookahead_threads=6 / sliced_threads=0 / nr=0 / decimate=1 / interlaced=0 / bluray_compat=0 / constrained_intra=0 / bframes=16 / b_pyramid=2 / b_adapt=2 / b_bias=0 / direct=3 / weightb=1 / open_gop=0 / weightp=2 / keyint=240 / keyint_min=24 / scenecut=40 / intra_refresh=0 / rc_lookahead=60 / rc=crf / mbtree=1 / crf=20.0 / qcomp=0.60 / qpmin=0 / qpmax=69 / qpstep=4 / vbv_maxrate=62500 / vbv_bufsize=78125 / crf_max=0.0 / nal_hrd=none / filler=0 / ip_ratio=1.40 / aq=1:1.00
    Default                     : Yes
    Forced                      : No
    Color range                 : Limited
    Color primaries             : BT.709
    Transfer characteristics    : BT.709
    Matrix coefficients         : BT.709

    Audio #1
    ID                          : 2
    Format                      : E-AC-3
    Format/Info                 : Enhanced AC-3
    Commercial name             : Dolby Digital Plus
    Codec ID                    : A_EAC3
    Duration                    : 1 h 40 min
    Bit rate mode               : Constant
    Bit rate                    : 224 kb/s
    Channel(s)                  : 2 channels
    Channel layout              : L R
    Sampling rate               : 48.0 kHz
    Frame rate                  : 31.250 FPS (1536 SPF)
    Compression mode            : Lossy
    Delay relative to video     : 2 s 0 ms
    Stream size                 : 161 MiB (2%)
    Language                    : Spanish
    Service kind                : Complete Main
    Default                     : Yes
    Forced                      : No

    Audio #2
    ID                          : 3
    Format                      : AC-3
    Format/Info                 : Audio Coding 3
    Commercial name             : Dolby Digital
    Codec ID                    : A_AC3
    Duration                    : 1 h 40 min
    Bit rate mode               : Constant
    Bit rate                    : 320 kb/s
    Channel(s)                  : 2 channels
    Channel layout              : L R
    Sampling rate               : 48.0 kHz
    Frame rate                  : 31.250 FPS (1536 SPF)
    Compression mode            : Lossy
    Delay relative to video     : 2 s 0 ms
    Stream size                 : 231 MiB (3%)
    Language                    : Spanish
    Service kind                : Complete Main
    Default                     : No
    Forced                      : No

    Audio #3
    ID                          : 4
    Format                      : DTS
    Format/Info                 : Digital Theater Systems
    Codec ID                    : A_DTS
    Duration                    : 1 h 40 min
    Bit rate mode               : Constant
    Bit rate                    : 755 kb/s
    Channel(s)                  : 6 channels
    Channel layout              : C L R Ls Rs LFE
    Sampling rate               : 48.0 kHz
    Frame rate                  : 93.750 FPS (512 SPF)
    Bit depth                   : 16 bits
    Compression mode            : Lossy
    Stream size                 : 544 MiB (8%)
    Language                    : English
    Default                     : No
    Forced                      : No

    Text
    ID                          : 5
    Format                      : UTF-8
    Codec ID                    : S_TEXT/UTF8
    Codec ID/Info               : UTF-8 Plain Text
    Duration                    : 1 h 40 min
    Bit rate                    : 34 b/s
    Count of elements           : 941
    Stream size                 : 25.4 KiB (0%)
    Language                    : Spanish
    Default                     : No
    Forced                      : No

  • Peso: 6.93 GiB

Sinopsis

A mother and daughter move to a new town and find themselves living next door to a house where a young girl murdered her parents. When the daughter befriends the surviving son, she learns the story is far from over.

 

Latino: E-AC3 + AC3 2.0 AMAZON  –  Ingles: DTS 5.1 Blu Ray

Ficha técnica

Video trailer de la película

Enlaces de descarga

Rip de Bluray

Descargar House at the End of the Street (2012) Full HD 1080p Latino – CMHDD




Aportes de DPeliculasHDmega la pass es:dpeliculashdmega.org Aportes de CinemaniaHD la pass es:cinemaniahdd.com
Guardado en : Horror , Thriller

Películas relacionadas

  • Primera Llegada (2018) PLACEBO Full HD 1080p Latino

    Primera Llegada (2018) PLACEBO Full HD 1080p Latino

    2018
    Primera Llegada (2018) PLACEBO Full HD 1080p Latino

    1h 30m 2018

    Descargar Primera Llegada (2018) PLACEBO Full HD 1080p Latino. Un estudiante de secundaria, Alex Lainey,...

    Director: Jason Stone

    Género: FULL 1080p Plateadas

    Actores: Théodore Pellerin

  • Primera Llegada (2018) REMUX 1080p Latino

    Primera Llegada (2018) REMUX 1080p Latino

    2018
    Primera Llegada (2018) REMUX 1080p Latino

    1h 30m 2018

    Descargar Primera Llegada (2018) REMUX 1080p Latino. Un estudiante de secundaria, Alex Lainey, quien...

    Director: Jason Stone

    Género: Remux

    Actores: Théodore Pellerin

  • Deep (2021) NF WEB-DL 1080p Latino

    Deep (2021) NF WEB-DL 1080p Latino

    2021
    Deep (2021) NF WEB-DL 1080p Latino

    01h41min 2021

    Cuatro estudiantes de medicina aceptan participar de un experimento científico sobre el insomnio, pero...

    Director: Thanabodee Uawithya

    Género: Drama

    Actores: Supanaree Sutavijitvong

  • Haseen Dillruba (2021) NF WEB-DL 1080p Latino

    Haseen Dillruba (2021) NF WEB-DL 1080p Latino

    2021
    Haseen Dillruba (2021) NF WEB-DL 1080p Latino

    2h 16m 2021

    Under investigation as a suspect in her husband's murder, a wife reveals details of their thorny marriage...

    Director: Vinil Mathew

    Género: Crime

    Actores: Yamini Das

  • La cabaña siniestra (2020) Full HD 1080p Latino

    La cabaña siniestra (2020) Full HD 1080p Latino

    2020
    La cabaña siniestra (2020) Full HD 1080p Latino

    1h 48m 2020

    When a father is forced to abruptly depart for work, he leaves his children, Aidan and Mia, at their...

    Director: Veronika Franz

    Género: Drama

    Actores: Riley Keough

descargar House at the End of the Street (2012) Full HD 1080p Latino – CMHDD Full 1080p 1080p gratis, House at the End of the Street (2012) Full HD 1080p Latino – CMHDD Full 1080p mega 1 link, House at the End of the Street (2012) Full HD 1080p Latino – CMHDD Full 1080p pelicula completa, descargar House at the End of the Street (2012) Full HD 1080p Latino – CMHDD Full 1080p gratis en mega.

House at the End of the Street (2012) Full HD 1080p Latino – CMHDD pelicula full hd, House at the End of the Street (2012) Full HD 1080p Latino – CMHDD mega latino, House at the End of the Street (2012) Full HD 1080p Latino – CMHDD 4k latino, House at the End of the Street (2012) Full HD 1080p Latino – CMHDD pelicula completa, House at the End of the Street (2012) Full HD 1080p Latino – CMHDD descargar gratis, descargar House at the End of the Street (2012) Full HD 1080p Latino – CMHDD pelicula latino, House at the End of the Street (2012) Full HD 1080p Latino – CMHDD 1 link mega, House at the End of the Street (2012) Full HD 1080p Latino – CMHDD 1 link google drive, House at the End of the Street (2012) Full HD 1080p Latino – CMHDD hd 1080p latino.
Comentarios 0