For the Love of Jessee (2020) Web-DL 1080p Latino

92 vistas
1 estrella2 estrellas3 estrellas4 estrellas5 estrellas (1 votos, promedio: 5,00 de 5)
Cargando...

Información de For the Love of Jessee (2020) Web-DL 1080p Latino

Datos de la película

  • Calidad: WEBDL
  • Audio: Español Latino AC3 2.0 iTunes - Ingles AC3 2.0 iTunes
  • Subtitulos: Español Latino SRT- FORZADOS SRT
  • Resolución: 1912x1008p
  • Formato: MKV
  • Codec: H.264
  • Encoder: CinemaniaHD
  • Mediainfo: Clic para Mostrar Datos Ver
  • For the Love of Jessee (2020) Web-DL 1080p Latino.mkv
    Format                      : Matroska
    Format version              : Version 4
    File size                   : 3.68 GiB
    Duration                    : 1 h 34 min
    Overall bit rate            : 5 579 kb/s
    Movie name                  : For the Love of Jessee (2020) CinemaniaHDD.Net
    Encoded date                : UTC 2020-07-02 14:32:34
    Writing application         : mkvmerge v46.0.0 ('No Deeper Escape') 64-bit
    Writing library             : libebml v1.3.10 + libmatroska v1.5.2
    Attachments                 : CINEMANIAHD.png

    Video
    ID                          : 1
    Format                      : AVC
    Format/Info                 : Advanced Video Codec
    Format profile              : High@L4
    Format settings             : CABAC / 4 Ref Frames
    Format settings, CABAC      : Yes
    Format settings, Reference  : 4 frames
    Codec ID                    : V_MPEG4/ISO/AVC
    Duration                    : 1 h 34 min
    Bit rate                    : 5 065 kb/s
    Width                       : 1 912 pixels
    Height                      : 1 008 pixels
    Display aspect ratio        : 1.897
    Frame rate mode             : Constant
    Frame rate                  : 23.976 FPS
    Color space                 : YUV
    Chroma subsampling          : 4:2:0
    Bit depth                   : 8 bits
    Scan type                   : Progressive
    Bits/(Pixel*Frame)          : 0.110
    Stream size                 : 3.34 GiB (91%)
    Title                       : Web HD1080p [CinemaniaHDD]
    Language                    : English
    Default                     : Yes
    Forced                      : No
    Color range                 : Limited
    Color primaries             : BT.709
    Transfer characteristics    : BT.709
    Matrix coefficients         : BT.709

    Audio #1
    ID                          : 2
    Format                      : AC-3
    Format/Info                 : Audio Coding 3
    Commercial name             : Dolby Digital
    Codec ID                    : A_AC3
    Duration                    : 1 h 34 min
    Bit rate mode               : Constant
    Bit rate                    : 256 kb/s
    Channel(s)                  : 2 channels
    Channel layout              : L R
    Sampling rate               : 48.0 kHz
    Frame rate                  : 31.250 FPS (1536 SPF)
    Compression mode            : Lossy
    Delay relative to video     : -42 ms
    Stream size                 : 173 MiB (5%)
    Title                       : Español Latino [CinemaniaHDD]
    Language                    : Spanish
    Service kind                : Complete Main
    Default                     : Yes
    Forced                      : No

    Audio #2
    ID                          : 3
    Format                      : AC-3
    Format/Info                 : Audio Coding 3
    Commercial name             : Dolby Digital
    Codec ID                    : A_AC3
    Duration                    : 1 h 34 min
    Bit rate mode               : Constant
    Bit rate                    : 256 kb/s
    Channel(s)                  : 2 channels
    Channel layout              : L R
    Sampling rate               : 48.0 kHz
    Frame rate                  : 31.250 FPS (1536 SPF)
    Compression mode            : Lossy
    Delay relative to video     : -42 ms
    Stream size                 : 173 MiB (5%)
    Title                       : Ingles [CinemaniaHDD]
    Language                    : English
    Service kind                : Complete Main
    Default                     : No
    Forced                      : No

    Text #1
    ID                          : 4
    Format                      : UTF-8
    Codec ID                    : S_TEXT/UTF8
    Codec ID/Info               : UTF-8 Plain Text
    Duration                    : 1 h 6 min
    Bit rate                    : 0 b/s
    Count of elements           : 9
    Stream size                 : 229 Bytes (0%)
    Title                       : Forzados-SRT [CinemaniaHDD]
    Language                    : Spanish
    Default                     : Yes
    Forced                      : No

    Text #2
    ID                          : 5
    Format                      : UTF-8
    Codec ID                    : S_TEXT/UTF8
    Codec ID/Info               : UTF-8 Plain Text
    Duration                    : 1 h 28 min
    Bit rate                    : 63 b/s
    Count of elements           : 1232
    Stream size                 : 41.2 KiB (0%)
    Title                       : Español-SRT [CinemaniaHDD]
    Language                    : Spanish
    Default                     : No
    Forced                      : No

    Menu
    00:00:00.000                : en:Capítulo 1
    00:16:19.437                : en:Capítulo 2
    00:32:01.128                : en:Capítulo 3
    00:49:47.444                : en:Capítulo 4
    01:08:14.884                : en:Capítulo 5

  • Peso: 3.68 GiB

Sinopsis

Descargar For the Love of Jessee (2020) Web-DL 1080p Latino. El mundo del doctor Luke Matthew se derrumba cuando pierde el amor de su vida y se convierte en padre en la misma noche. Cuando él contrata a Sage como la nueva niñera, ambos comienzan a darse cuenta de que la mejor medicina es dejarlo ir.

Ficha técnica

  • Titulo original: For the Love of Jessee
  • Fecha de lanzamiento: 01-05-2020
  • Género: Sin categoría
  • Puntuación: 5.0 1 votos
  • Duración:
    0h 0m

Video trailer de la película

Enlaces de descarga

Rip de Bluray

Descargar For the Love of Jessee (2020) Web-DL 1080p Latino




Aportes de DPeliculasHDmega la pass es:dpeliculashdmega.org Aportes de CinemaniaHD la pass es:cinemaniahdd.com
Guardado en : Sin categoría

Películas relacionadas

Comentarios 0