×

¿Problemas para descargar con Mozilla, EDGE? Deshabilita la opción "Abrir vinculos en una pestaña nueva" tal como lo muestra ésta imagen.

Fast & Furious X (2023) MA WEB-DL 1080p Latino

256 vistas

Información de Fast & Furious X (2023) MA WEB-DL 1080p Latino

Datos de la película

  • Calidad: 1080p
  • Audio: Español Latino AC3 5.1 WEB-DL - Ingles AC3 5.1 WEB-DL
  • Subtitulos: Español Latino SRT- FORZADOS SRT
  • Resolución: 1920x1080
  • Formato: MKV
  • Codec: H.264
  • Encoder: cinemaniahdd
  • Mediainfo: Clic para Mostrar Datos Ver
  • Fast & Furious X (2023) MA WEB-DL 1080p Latino.mkv
    Format                      : Matroska
    Format version              : Version 4
    File size                   : 8.93 GiB
    Duration                    : 2 h 20 min
    Overall bit rate            : 9 077 kb/s
    Movie name                  : Fast & Furious X (2023) - [1080p] - CinemaniaHDD.Net
    Encoded date                : UTC 2023-06-09 05:12:03
    Writing application         : mkvmerge v56.1.0 ('My Friend') 64-bit
    Writing library             : libebml v1.4.2 + libmatroska v1.6.4

    Video
    ID                          : 1
    Format                      : AVC
    Format/Info                 : Advanced Video Codec
    Format profile              : High@L4
    Format settings             : CABAC / 4 Ref Frames
    Format settings, CABAC      : Yes
    Format settings, Reference  : 4 frames
    Codec ID                    : V_MPEG4/ISO/AVC
    Duration                    : 2 h 20 min
    Bit rate                    : 8 000 kb/s
    Width                       : 1 920 pixels
    Height                      : 1 080 pixels
    Display aspect ratio        : 16:9
    Frame rate mode             : Constant
    Frame rate                  : 23.976 (24000/1001) FPS
    Color space                 : YUV
    Chroma subsampling          : 4:2:0
    Bit depth                   : 8 bits
    Scan type                   : Progressive
    Bits/(Pixel*Frame)          : 0.161
    Stream size                 : 7.79 GiB (87%)
    Title                       : CinemaniaHDD
    Writing library             : x264 core 164 r3094 bfc87b7
    Encoding settings           : cabac=1 / ref=4 / deblock=1:-1:-1 / analyse=0x3:0x133 / me=umh / subme=9 / psy=1 / psy_rd=1.00:0.15 / mixed_ref=1 / me_range=16 / chroma_me=1 / trellis=2 / 8x8dct=1 / cqm=0 / deadzone=21,11 / fast_pskip=1 / chroma_qp_offset=-3 / threads=12 / lookahead_threads=1 / sliced_threads=0 / nr=0 / decimate=1 / interlaced=0 / bluray_compat=0 / stitchable=1 / constrained_intra=0 / bframes=3 / b_pyramid=2 / b_adapt=2 / b_bias=0 / direct=3 / weightb=1 / open_gop=0 / weightp=2 / keyint=48 / keyint_min=4 / scenecut=0 / intra_refresh=0 / rc_lookahead=48 / rc=abr / mbtree=1 / bitrate=8000 / ratetol=1.0 / qcomp=0.60 / qpmin=0 / qpmax=69 / qpstep=4 / vbv_maxrate=8800 / vbv_bufsize=16000 / nal_hrd=none / filler=0 / ip_ratio=1.40 / aq=1:1.00
    Language                    : English
    Default                     : Yes
    Forced                      : No
    Color range                 : Limited
    Color primaries             : BT.709
    Transfer characteristics    : BT.709
    Matrix coefficients         : BT.709

    Audio #1
    ID                          : 2
    Format                      : AC-3
    Format/Info                 : Audio Coding 3
    Commercial name             : Dolby Digital
    Codec ID                    : A_AC3
    Duration                    : 2 h 20 min
    Bit rate mode               : Constant
    Bit rate                    : 384 kb/s
    Channel(s)                  : 6 channels
    Channel layout              : L R C LFE Ls Rs
    Sampling rate               : 48.0 kHz
    Frame rate                  : 31.250 FPS (1536 SPF)
    Compression mode            : Lossy
    Stream size                 : 387 MiB (4%)
    Title                       : Español Latino [CinemaniaHDD]
    Language                    : Spanish
    Service kind                : Complete Main
    Default                     : Yes
    Forced                      : No

    Audio #2
    ID                          : 3
    Format                      : E-AC-3 JOC
    Format/Info                 : Enhanced AC-3 with Joint Object Coding
    Commercial name             : Dolby Digital Plus with Dolby Atmos
    Codec ID                    : A_EAC3
    Duration                    : 2 h 20 min
    Bit rate mode               : Constant
    Bit rate                    : 768 kb/s
    Channel(s)                  : 6 channels
    Channel layout              : L R C LFE Ls Rs
    Sampling rate               : 48.0 kHz
    Frame rate                  : 31.250 FPS (1536 SPF)
    Compression mode            : Lossy
    Stream size                 : 774 MiB (8%)
    Title                       : Inglés [CinemaniaHDD]
    Language                    : English
    Service kind                : Complete Main
    Default                     : No
    Forced                      : No
    Complexity index            : 16
    Number of dynamic objects   : 15
    Bed channel count           : 1 channel
    Bed channel configuration   : LFE

    Text #1
    ID                          : 4
    Format                      : UTF-8
    Codec ID                    : S_TEXT/UTF8
    Codec ID/Info               : UTF-8 Plain Text
    Duration                    : 2 h 9 min
    Bit rate                    : 0 b/s
    Count of elements           : 40
    Stream size                 : 767 Bytes (0%)
    Title                       : Forzados [CinemaniaHDD]
    Language                    : Spanish
    Default                     : Yes
    Forced                      : No

    Text #2
    ID                          : 5
    Format                      : UTF-8
    Codec ID                    : S_TEXT/UTF8
    Codec ID/Info               : UTF-8 Plain Text
    Duration                    : 2 h 20 min
    Bit rate                    : 44 b/s
    Count of elements           : 1554
    Stream size                 : 45.6 KiB (0%)
    Title                       : Español Latino [CinemaniaHDD]
    Language                    : Spanish
    Default                     : No
    Forced                      : No

    Text #3
    ID                          : 6
    Format                      : UTF-8
    Codec ID                    : S_TEXT/UTF8
    Codec ID/Info               : UTF-8 Plain Text
    Duration                    : 2 h 14 min
    Bit rate                    : 58 b/s
    Count of elements           : 1999
    Stream size                 : 58.1 KiB (0%)
    Title                       : Inglés [CinemaniaHDD]
    Language                    : English
    Default                     : No
    Forced                      : No

     

  • Peso: 8.93 GiB

Sinopsis

Durante numerosas misiones más que imposibles, Dom Toretto y su familia han sido capaces de ser más listos, de tener más valor y de ir más rápido que cualquier enemigo que se cruzara con ellos. Pero ahora tendrán que enfrentarse al oponente más letal que jamás hayan conocido: un terrible peligro que resurge del pasado, que se mueve por una sangrienta sed de venganza y que está dispuesto a destrozar a la familia y destruir para siempre todo lo que a Dom le importa.

Ficha técnica

Video trailer de la película

Enlaces de descarga

Rip de Bluray

Descargar Fast & Furious X (2023) MA WEB-DL 1080p Latino




Aportes de DPeliculasHDmega la pass es:dpeliculashdmega.org Aportes de CinemaniaHD la pass es:cinemaniahdd.com Aportes recientes:cinemaniahdd.net
Guardado en : Action , Crime , Thriller

Películas relacionadas

  • Encierro (2023) NF WEB-DL 1080p Latino

    Encierro (2023) NF WEB-DL 1080p Latino

    2023
    Encierro (2023) NF WEB-DL 1080p Latino

    1h 36m 2023

    Descargar Encierro (2023) NF WEB-DL 1080p Latino. Un thriller romántico que enfrenta a Lina, recién...

    Director: Stephen Carney

    Género: Netflix

    Actores: Toby Ryan

  • Blue Beetle (2023) Full HD 1080p Latino-CMHDD

    Blue Beetle (2023) Full HD 1080p Latino-CMHDD

    2023
    Blue Beetle (2023) Full HD 1080p Latino-CMHDD

    2h 8m 2023

    Descargar Blue Beetle (2023) Full HD 1080p Latino-CMHDD. Jaime Reyes, recién licenciado, regresa a casa...

    Director: K.C. Hodenfield

    Género: Action

    Actores: Yuli Zorrilla

  • Carga Máxima (2023) NF WEB-DL 1080p Latino

    Carga Máxima (2023) NF WEB-DL 1080p Latino

    2023
    Carga Máxima (2023) NF WEB-DL 1080p Latino

    1h 40m 2023

    Descargar Carga Máxima (2023) NF WEB-DL 1080p Latino. Rainha (Sheron Menezes) y Roger (Thiago Martins)...

    Director: Tomás Portella

    Género: Action

    Actores: Vitória Valentin

  • Original Sin (2001) REMUX 1080p Latino – CMHDD

    Original Sin (2001) REMUX 1080p Latino – CMHDD

    2001
    Original Sin (2001) REMUX 1080p Latino – CMHDD

    1h 58m 2001

    A young man is plunged into a life of subterfuge, deceit and mistaken identity in pursuit of a femme...

    Director: Michael Cristofer

    Género: Drama

    Actores: Thomas Jane

descargar Fast & Furious X (2023) MA WEB-DL 1080p Latino 1080p 1080p gratis, Fast & Furious X (2023) MA WEB-DL 1080p Latino 1080p mega 1 link, Fast & Furious X (2023) MA WEB-DL 1080p Latino 1080p pelicula completa, descargar Fast & Furious X (2023) MA WEB-DL 1080p Latino 1080p gratis en mega.

Fast & Furious X (2023) MA WEB-DL 1080p Latino pelicula full hd, Fast & Furious X (2023) MA WEB-DL 1080p Latino mega latino, Fast & Furious X (2023) MA WEB-DL 1080p Latino 4k latino, Fast & Furious X (2023) MA WEB-DL 1080p Latino pelicula completa, Fast & Furious X (2023) MA WEB-DL 1080p Latino descargar gratis, descargar Fast & Furious X (2023) MA WEB-DL 1080p Latino pelicula latino, Fast & Furious X (2023) MA WEB-DL 1080p Latino 1 link mega, Fast & Furious X (2023) MA WEB-DL 1080p Latino 1 link google drive, Fast & Furious X (2023) MA WEB-DL 1080p Latino hd 1080p latino.
Comentarios 0