×

¿Problemas para descargar con Mozilla, EDGE? Deshabilita la opción "Abrir vinculos en una pestaña nueva" tal como lo muestra ésta imagen.

El Ombligo de Guie’dani (2019) AMZN WEB-DL 1080p Latino

746 vistas

Información de El Ombligo de Guie’dani (2019) AMZN WEB-DL 1080p Latino

Datos de la película

  • Calidad: WEBDL
  • Audio: Español Latino AC3 2.0
  • Subtitulos: No
  • Resolución: 1920x1080
  • Formato: MKV
  • Codec: H.264
  • Encoder: cinemaniahdd
  • Mediainfo: Clic para Mostrar Datos Ver
  • El Ombligo de Guie’dani (2019) AMZN WEB-DL 1080p Latino.mkv
    Format                      : Matroska
    Format version              : Version 4
    File size                   : 8.23 GiB
    Duration                    : 1 h 59 min
    Overall bit rate            : 9 893 kb/s
    Movie name                  : El Ombligo de Guie’dani (2019) - CinemaniaHDD.Net
    Encoded date                : UTC 2020-03-02 05:37:32
    Writing application         : mkvmerge v42.0.0 ('Overtime') 64-bit
    Writing library             : libebml v1.3.10 + libmatroska v1.5.2

    Video
    ID                          : 1
    Format                      : AVC
    Format/Info                 : Advanced Video Codec
    Format profile              : High@L4
    Format settings             : CABAC / 4 Ref Frames
    Format settings, CABAC      : Yes
    Format settings, ReFrames   : 4 frames
    Codec ID                    : V_MPEG4/ISO/AVC
    Duration                    : 1 h 59 min
    Bit rate mode               : Constant
    Bit rate                    : 10 000 kb/s
    Width                       : 1 920 pixels
    Height                      : 1 080 pixels
    Display aspect ratio        : 16:9
    Frame rate mode             : Constant
    Frame rate                  : 23.976 (24000/1001) FPS
    Color space                 : YUV
    Chroma subsampling          : 4:2:0
    Bit depth                   : 8 bits
    Scan type                   : Progressive
    Bits/(Pixel*Frame)          : 0.201
    Stream size                 : 8.04 GiB (98%)
    Title                       : CinemaniaHDD
    Default                     : Yes
    Forced                      : No
    Color range                 : Limited
    Color primaries             : BT.709
    Transfer characteristics    : BT.709
    Matrix coefficients         : BT.709

    Audio
    ID                          : 2
    Format                      : E-AC-3
    Format/Info                 : Enhanced AC-3
    Commercial name             : Dolby Digital Plus
    Codec ID                    : A_EAC3
    Duration                    : 1 h 59 min
    Bit rate mode               : Constant
    Bit rate                    : 224 kb/s
    Channel(s)                  : 2 channels
    Channel layout              : L R
    Sampling rate               : 48.0 kHz
    Frame rate                  : 31.250 FPS (1536 SPF)
    Compression mode            : Lossy
    Stream size                 : 191 MiB (2%)
    Title                       : Español latino [CinemaniaHDD]
    Language                    : Spanish
    Service kind                : Complete Main
    Default                     : Yes
    Forced                      : No

    Text
    ID                          : 3
    Format                      : UTF-8
    Codec ID                    : S_TEXT/UTF8
    Codec ID/Info               : UTF-8 Plain Text
    Duration                    : 1 h 54 min
    Bit rate                    : 36 b/s
    Count of elements           : 1092
    Stream size                 : 30.6 KiB (0%)
    Title                       : Español latino [CinemaniaHDD]
    Language                    : Spanish
    Default                     : No
    Forced                      : No

     

  • Peso: 8.23 GiB

Sinopsis

Guie’dani, una niña indígena zapoteca, y su madre, entran a trabajar para una familia de clase media acomodada de la Ciudad de México. La pequeña no se adapta y es conflictiva.

Ficha técnica

  • Titulo original: Xquipi’ Guie’dani
  • Fecha de lanzamiento: 04-10-2019 (Mexico)
  • Director: Xavi Sala
  • Género: Sin categoría

Video trailer de la película

Enlaces de descarga

Rip de Bluray

Descargar El Ombligo de Guie’dani (2019) AMZN WEB-DL 1080p Latino




Aportes de DPeliculasHDmega la pass es:dpeliculashdmega.org Aportes de CinemaniaHD la pass es:cinemaniahdd.com
Guardado en : Sin categoría

Películas relacionadas

descargar El Ombligo de Guie’dani (2019) AMZN WEB-DL 1080p Latino WEBDL 1080p gratis, El Ombligo de Guie’dani (2019) AMZN WEB-DL 1080p Latino WEBDL mega 1 link, El Ombligo de Guie’dani (2019) AMZN WEB-DL 1080p Latino WEBDL pelicula completa, descargar El Ombligo de Guie’dani (2019) AMZN WEB-DL 1080p Latino WEBDL gratis en mega.

El Ombligo de Guie’dani (2019) AMZN WEB-DL 1080p Latino pelicula full hd, El Ombligo de Guie’dani (2019) AMZN WEB-DL 1080p Latino mega latino, El Ombligo de Guie’dani (2019) AMZN WEB-DL 1080p Latino 4k latino, El Ombligo de Guie’dani (2019) AMZN WEB-DL 1080p Latino pelicula completa, El Ombligo de Guie’dani (2019) AMZN WEB-DL 1080p Latino descargar gratis, descargar El Ombligo de Guie’dani (2019) AMZN WEB-DL 1080p Latino pelicula latino, El Ombligo de Guie’dani (2019) AMZN WEB-DL 1080p Latino 1 link mega, El Ombligo de Guie’dani (2019) AMZN WEB-DL 1080p Latino 1 link google drive, El Ombligo de Guie’dani (2019) AMZN WEB-DL 1080p Latino hd 1080p latino.
Comentarios 0