×

¿Problemas para descargar con Mozilla, EDGE? Deshabilita la opción "Abrir vinculos en una pestaña nueva" tal como lo muestra ésta imagen.

Dragon Ball Super (2015) Saga de la Batalla de los Dioses REMUX 1080p Latino – CMHDD

714 vistas

Información de Dragon Ball Super (2015) Saga de la Batalla de los Dioses REMUX 1080p Latino – CMHDD

Datos de la película

  • Calidad: Full 1080p
  • Audio: Se especifica abajo de la Sinopsis
  • Subtitulos: Español Latino SRT
  • Resolución: 1920x1080p
  • Formato: MKV
  • Codec: H.264
  • Encoder: Dracarys
  • Mediainfo: Clic para Mostrar Datos Ver
  • Format                      : Matroska
    Format version              : Version 4
    File size                   : 6.38 GiB
    Duration                    : 23 min 6 s
    Overall bit rate mode       : Variable
    Overall bit rate            : 39.6 Mb/s
    Movie name                  : Dragon Ball Super (2015) [S01E02] REMUX 1080p Latino - CMHDD
    Encoded date                : UTC 2020-12-14 23:39:49
    Writing application         : mkvmerge v51.0.0 ('I Wish') 64-bit
    Writing library             : libebml v1.4.0 + libmatroska v1.6.2

    Video
    ID                          : 1
    Format                      : AVC
    Format/Info                 : Advanced Video Codec
    Format profile              : High@L4.1
    Format settings             : CABAC / 4 Ref Frames
    Format settings, CABAC      : Yes
    Format settings, Reference  : 4 frames
    Codec ID                    : V_MPEG4/ISO/AVC
    Duration                    : 23 min 6 s
    Bit rate mode               : Constant
    Bit rate                    : 39.0 Mb/s
    Width                       : 1 920 pixels
    Height                      : 1 080 pixels
    Display aspect ratio        : 16:9
    Frame rate mode             : Constant
    Frame rate                  : 23.976 (24000/1001) FPS
    Color space                 : YUV
    Chroma subsampling          : 4:2:0
    Bit depth                   : 8 bits
    Scan type                   : Progressive
    Bits/(Pixel*Frame)          : 0.784
    Stream size                 : 6.16 GiB (96%)
    Language                    : Japanese
    Default                     : Yes
    Forced                      : No
    Color range                 : Limited
    Color primaries             : BT.709
    Transfer characteristics    : BT.709
    Matrix coefficients         : BT.709

    Audio #1
    ID                          : 2
    Format                      : AC-3
    Format/Info                 : Audio Coding 3
    Commercial name             : Dolby Digital
    Codec ID                    : A_AC3
    Duration                    : 23 min 6 s
    Bit rate mode               : Constant
    Bit rate                    : 192 kb/s
    Channel(s)                  : 2 channels
    Channel layout              : L R
    Sampling rate               : 48.0 kHz
    Frame rate                  : 31.250 FPS (1536 SPF)
    Compression mode            : Lossy
    Stream size                 : 31.7 MiB (0%)
    Language                    : Spanish
    Service kind                : Complete Main
    Default                     : Yes
    Forced                      : No

    Audio #2
    ID                          : 3
    Format                      : MLP FBA
    Format/Info                 : Meridian Lossless Packing FBA
    Commercial name             : Dolby TrueHD
    Codec ID                    : A_TRUEHD
    Duration                    : 23 min 6 s
    Bit rate mode               : Variable
    Bit rate                    : 1 154 kb/s
    Maximum bit rate            : 1 578 kb/s
    Channel(s)                  : 2 channels
    Channel layout              : L R
    Sampling rate               : 48.0 kHz
    Frame rate                  : 1 200.000 FPS (40 SPF)
    Compression mode            : Lossless
    Delay relative to video     : 1 ms
    Stream size                 : 191 MiB (3%)
    Language                    : Japanese
    Default                     : No
    Forced                      : No

    Text
    ID                          : 4
    Format                      : UTF-8
    Codec ID                    : S_TEXT/UTF8
    Codec ID/Info               : UTF-8 Plain Text
    Duration                    : 22 min 53 s
    Bit rate                    : 52 b/s
    Count of elements           : 312
    Stream size                 : 8.77 KiB (0%)
    Language                    : Spanish
    Default                     : No
    Forced                      : No

    Menu
    00:00:00.000                : en:Chapter 1
    00:01:25.085                : en:Chapter 2
    00:12:27.080                : en:Chapter 3
    00:21:35.044                : en:Chapter 4
    00:22:35.104                : en:Chapter 5

  • Peso: 89,3 GiB Total

Sinopsis

Con la derrota de Majin Buu, la paz ha vuelto a la Tierra seis meses después. Gokú, quien ahora es un granjero -pero que secretamente continua con su deseo de convertirse en el hombre más poderoso del universo- y sus amigos viven una vida pacifica. Han pasado miles de años y Bills, el Dios de la destrucción ha despertado, presentando una nueva amenaza no solo para el destino de laTierra, sino para todos los planetas del universo. Considerado como el ser más aterrador de todo el universo, Bills tiene intensión de enfrentarse al legendario guerrero descrito en una profecía de hace mucho tiempo, como el Super Saiyajin Dios.

Latino: AC3 2.0 – Japones: TrueHD 2.0

Ficha técnica

Video trailer de la película

Enlaces de descarga

Rip de Bluray

Descargar Dragon Ball Super (2015) Saga de la Batalla de los Dioses REMUX 1080p Latino – CMHDD


Aportes de DPeliculasHDmega la pass es:dpeliculashdmega.org Aportes de CinemaniaHD la pass es:cinemaniahdd.com

Películas relacionadas

descargar Dragon Ball Super (2015) Saga de la Batalla de los Dioses REMUX 1080p Latino – CMHDD Full 1080p 1080p gratis, Dragon Ball Super (2015) Saga de la Batalla de los Dioses REMUX 1080p Latino – CMHDD Full 1080p mega 1 link, Dragon Ball Super (2015) Saga de la Batalla de los Dioses REMUX 1080p Latino – CMHDD Full 1080p pelicula completa, descargar Dragon Ball Super (2015) Saga de la Batalla de los Dioses REMUX 1080p Latino – CMHDD Full 1080p gratis en mega.

Dragon Ball Super (2015) Saga de la Batalla de los Dioses REMUX 1080p Latino – CMHDD pelicula full hd, Dragon Ball Super (2015) Saga de la Batalla de los Dioses REMUX 1080p Latino – CMHDD mega latino, Dragon Ball Super (2015) Saga de la Batalla de los Dioses REMUX 1080p Latino – CMHDD 4k latino, Dragon Ball Super (2015) Saga de la Batalla de los Dioses REMUX 1080p Latino – CMHDD pelicula completa, Dragon Ball Super (2015) Saga de la Batalla de los Dioses REMUX 1080p Latino – CMHDD descargar gratis, descargar Dragon Ball Super (2015) Saga de la Batalla de los Dioses REMUX 1080p Latino – CMHDD pelicula latino, Dragon Ball Super (2015) Saga de la Batalla de los Dioses REMUX 1080p Latino – CMHDD 1 link mega, Dragon Ball Super (2015) Saga de la Batalla de los Dioses REMUX 1080p Latino – CMHDD 1 link google drive, Dragon Ball Super (2015) Saga de la Batalla de los Dioses REMUX 1080p Latino – CMHDD hd 1080p latino.
Comentarios 0