×

¿Problemas para descargar con Mozilla, EDGE? Deshabilita la opción "Abrir vinculos en una pestaña nueva" tal como lo muestra ésta imagen.

Dracula: Mar de sangre (2023) MA WEB-DL 1080p Latino

313 vistas

Información de Dracula: Mar de sangre (2023) MA WEB-DL 1080p Latino

Datos de la película

  • Calidad: WEBDL
  • Audio: Español Latino AC3 5.1 WEB-DL - Ingles AC3 5.1 WEB-DL
  • Subtitulos: Español Latino SRT- FORZADOS SRT
  • Resolución: 1920x1080p
  • Formato: MKV
  • Codec: H.264
  • Encoder: Melkor
  • Mediainfo: Clic para Mostrar Datos Ver
  • Dracula. Mar de sangre (2023) MA WebDL 1080p Latino.mkv
    Format                      : Matroska
    Format version              : Version 4
    File size                   : 7.57 GiB
    Duration                    : 1 h 58 min
    Overall bit rate            : 9 134 kb/s
    Movie name                  : The Last Voyage of the Demeter (2023) CinemaniaHDD.Net
    Encoded date                : UTC 2023-08-30 05:02:01
    Writing application         : mkvmerge v56.1.0 ('My Friend') 64-bit
    Writing library             : libebml v1.4.2 + libmatroska v1.6.4
    Attachments                 : CINEMANIAHD.png
    Site                        : CinemaniaHDD.Net
    Uploader                    : Melkor

    Video
    ID                          : 1
    Format                      : AVC
    Format/Info                 : Advanced Video Codec
    Format profile              : High@L4
    Format settings             : CABAC / 4 Ref Frames
    Format settings, CABAC      : Yes
    Format settings, Reference  : 4 frames
    Codec ID                    : V_MPEG4/ISO/AVC
    Duration                    : 1 h 58 min
    Bit rate                    : 8 000 kb/s
    Width                       : 1 920 pixels
    Height                      : 1 080 pixels
    Display aspect ratio        : 16:9
    Frame rate mode             : Constant
    Frame rate                  : 23.976 (24000/1001) FPS
    Color space                 : YUV
    Chroma subsampling          : 4:2:0
    Bit depth                   : 8 bits
    Scan type                   : Progressive
    Bits/(Pixel*Frame)          : 0.161
    Stream size                 : 6.56 GiB (87%)
    Title                       : Web HD1080p [CinemaniaHDD]
    Writing library             : x264 core 164 r3094 bfc87b7
    Encoding settings           : cabac=1 / ref=4 / deblock=1:-1:-1 / analyse=0x3:0x133 / me=umh / subme=9 / psy=1 / psy_rd=1.00:0.15 / mixed_ref=1 / me_range=16 / chroma_me=1 / trellis=2 / 8x8dct=1 / cqm=0 / deadzone=21,11 / fast_pskip=1 / chroma_qp_offset=-3 / threads=12 / lookahead_threads=1 / sliced_threads=0 / nr=0 / decimate=1 / interlaced=0 / bluray_compat=0 / stitchable=1 / constrained_intra=0 / bframes=3 / b_pyramid=2 / b_adapt=2 / b_bias=0 / direct=3 / weightb=1 / open_gop=0 / weightp=2 / keyint=48 / keyint_min=4 / scenecut=0 / intra_refresh=0 / rc_lookahead=48 / rc=abr / mbtree=1 / bitrate=8000 / ratetol=1.0 / qcomp=0.60 / qpmin=0 / qpmax=69 / qpstep=4 / vbv_maxrate=8800 / vbv_bufsize=16000 / nal_hrd=none / filler=0 / ip_ratio=1.40 / aq=1:1.00
    Language                    : English
    Default                     : Yes
    Forced                      : Yes
    Color range                 : Limited
    Color primaries             : BT.709
    Transfer characteristics    : BT.709
    Matrix coefficients         : BT.709

    Audio #1
    ID                          : 2
    Format                      : AC-3
    Format/Info                 : Audio Coding 3
    Commercial name             : Dolby Digital
    Codec ID                    : A_AC3
    Duration                    : 1 h 58 min
    Bit rate mode               : Constant
    Bit rate                    : 448 kb/s
    Channel(s)                  : 6 channels
    Channel layout              : L R C LFE Ls Rs
    Sampling rate               : 48.0 kHz
    Frame rate                  : 31.250 FPS (1536 SPF)
    Compression mode            : Lossy
    Stream size                 : 380 MiB (5%)
    Title                       : Español Latino [CinemaniaHDD]
    Language                    : Spanish
    Service kind                : Complete Main
    Default                     : Yes
    Forced                      : Yes

    Audio #2
    ID                          : 3
    Format                      : E-AC-3 JOC
    Format/Info                 : Enhanced AC-3 with Joint Object Coding
    Commercial name             : Dolby Digital Plus with Dolby Atmos
    Codec ID                    : A_EAC3
    Duration                    : 1 h 58 min
    Bit rate mode               : Constant
    Bit rate                    : 768 kb/s
    Channel(s)                  : 6 channels
    Channel layout              : L R C LFE Ls Rs
    Sampling rate               : 48.0 kHz
    Frame rate                  : 31.250 FPS (1536 SPF)
    Compression mode            : Lossy
    Delay relative to video     : 1 s 0 ms
    Stream size                 : 652 MiB (8%)
    Title                       : Ingles [CinemaniaHDD]
    Language                    : English
    Service kind                : Complete Main
    Default                     : No
    Forced                      : No
    Complexity index            : 16
    Number of dynamic objects   : 15
    Bed channel count           : 1 channel
    Bed channel configuration   : LFE

    Text #1
    ID                          : 4
    Format                      : UTF-8
    Codec ID                    : S_TEXT/UTF8
    Codec ID/Info               : UTF-8 Plain Text
    Duration                    : 7 min 4 s
    Bit rate                    : 9 b/s
    Count of elements           : 12
    Stream size                 : 502 Bytes (0%)
    Title                       : Forzados-SRT [CinemaniaHDD]
    Language                    : Spanish
    Default                     : Yes
    Forced                      : Yes

    Text #2
    ID                          : 5
    Format                      : UTF-8
    Codec ID                    : S_TEXT/UTF8
    Codec ID/Info               : UTF-8 Plain Text
    Duration                    : 1 h 56 min
    Bit rate                    : 35 b/s
    Count of elements           : 1096
    Stream size                 : 30.6 KiB (0%)
    Title                       : Español-SRT [CinemaniaHDD]
    Language                    : Spanish
    Default                     : No
    Forced                      : No

    Text #3
    ID                          : 6
    Format                      : UTF-8
    Codec ID                    : S_TEXT/UTF8
    Codec ID/Info               : UTF-8 Plain Text
    Duration                    : 1 h 47 min
    Bit rate                    : 42 b/s
    Count of elements           : 1091
    Stream size                 : 33.6 KiB (0%)
    Title                       : Ingles-SRT [CinemaniaHDD]
    Language                    : English
    Default                     : No
    Forced                      : No

    Menu
    00:00:01.000                : Chapter 01
    00:04:10.499                : Chapter 02
    00:12:05.933                : Chapter 03
    00:19:51.440                : Chapter 04
    00:25:28.235                : Chapter 05
    00:34:09.840                : Chapter 06
    00:43:10.964                : Chapter 07
    00:47:37.940                : Chapter 08
    00:55:08.724                : Chapter 09
    01:05:39.146                : Chapter 10
    01:10:36.110                : Chapter 11
    01:17:42.953                : Chapter 12
    01:26:08.834                : Chapter 13
    01:32:46.273                : Chapter 14
    01:44:02.282                : Chapter 15
    01:49:10.966                : Chapter 16

  • Peso: 7.57 GiB

Sinopsis

Descargar Dracula: Mar de sangre (2023) MA WEB-DL 1080p Latino. Basado en un solo capítulo, el Captain’s Log, de la clásica novela Drácula de 1897 de Bram Stoker, la historia se desarrolla a bordo de la goleta rusa Demeter, que fue fletada para transportar carga privada (veinticuatro cajas de madera sin marcar) desde Carpatia a Londres. La película detallará los extraños eventos que acontecieron a la tripulación condenada mientras intentan sobrevivir al viaje por el océano, acechados cada noche por una aterradora presencia a bordo del barco. Cuando finalmente llegó cerca del puerto de Whitby, estaba totalmente en ruinas. No había rastro de la tripulación.

Ficha técnica

Video trailer de la película

Enlaces de descarga

Rip de Bluray

Descargar Dracula: Mar de sangre (2023) MA WEB-DL 1080p Latino




Aportes de DPeliculasHDmega la pass es:dpeliculashdmega.org Aportes de CinemaniaHD la pass es:cinemaniahdd.com Aportes recientes:cinemaniahdd.net
Guardado en : Fantasy , Horror

Películas relacionadas

  • Spider-Man 3 (2007) REMUX 4K HDR Latino – CMHDD

    Spider-Man 3 (2007) REMUX 4K HDR Latino – CMHDD

    2007
    Spider-Man 3 (2007) REMUX 4K HDR Latino – CMHDD

    2h 19m 2007

    The seemingly invincible Spider-Man goes up against an all-new crop of villains—including the shape-shifting...

    Director: Trudy Ramirez

    Género: 4K HDR

    Actores: Willem Dafoe

  • Hermana Muerte (2023) NF WEB-DL 1080p Español

    Hermana Muerte (2023) NF WEB-DL 1080p Español

    2023
    Hermana Muerte (2023) NF WEB-DL 1080p Español

    1h 31m 2023

    Descargar Hermana Muerte (2023) NF WEB-DL 1080p Español. En la España de la posguerra civil, Narcisa,...

    Director: Paco Plaza

    Género: Drama

    Actores: Sara Roch

  • Mansión embrujada (2023) HD 1080p Latino

    Mansión embrujada (2023) HD 1080p Latino

    2023
    Mansión embrujada (2023) HD 1080p Latino

    2h 3m 2023

    Descargar Mansión embrujada (2023) HD 1080p Latino. Inspirada en la clásica atracción del parque temático,...

    Director: Tyler Wade Vaughn

    Género: Comedy

    Actores: Winona Ryder

  • Mansión embrujada (2023) REMUX 1080p Latino

    Mansión embrujada (2023) REMUX 1080p Latino

    2023
    Mansión embrujada (2023) REMUX 1080p Latino

    2h 3m 2023

    Descargar Mansión embrujada (2023) REMUX 1080p Latino. Inspirada en la clásica atracción del parque...

    Director: Tyler Wade Vaughn

    Género: Comedy

    Actores: Winona Ryder

descargar Dracula: Mar de sangre (2023) MA WEB-DL 1080p Latino WEBDL 1080p gratis, Dracula: Mar de sangre (2023) MA WEB-DL 1080p Latino WEBDL mega 1 link, Dracula: Mar de sangre (2023) MA WEB-DL 1080p Latino WEBDL pelicula completa, descargar Dracula: Mar de sangre (2023) MA WEB-DL 1080p Latino WEBDL gratis en mega.

Dracula: Mar de sangre (2023) MA WEB-DL 1080p Latino pelicula full hd, Dracula: Mar de sangre (2023) MA WEB-DL 1080p Latino mega latino, Dracula: Mar de sangre (2023) MA WEB-DL 1080p Latino 4k latino, Dracula: Mar de sangre (2023) MA WEB-DL 1080p Latino pelicula completa, Dracula: Mar de sangre (2023) MA WEB-DL 1080p Latino descargar gratis, descargar Dracula: Mar de sangre (2023) MA WEB-DL 1080p Latino pelicula latino, Dracula: Mar de sangre (2023) MA WEB-DL 1080p Latino 1 link mega, Dracula: Mar de sangre (2023) MA WEB-DL 1080p Latino 1 link google drive, Dracula: Mar de sangre (2023) MA WEB-DL 1080p Latino hd 1080p latino.
Comentarios 0