×

¿Problemas para descargar con Mozilla, EDGE? Deshabilita la opción "Abrir vinculos en una pestaña nueva" tal como lo muestra ésta imagen.

Disquiet (2023) AMZN WEB-DL 1080p Latino

140 vistas

Información de Disquiet (2023) AMZN WEB-DL 1080p Latino

Datos de la película

  • Calidad: 1080p
  • Audio: Español Latino AC3 2.0 WEB-DL - Ingles AC3 5.1 WEB-DL
  • Subtitulos: Español Latino SRT- FORZADOS SRT
  • Resolución: 1920x1080
  • Formato:
  • Codec: H.264
  • Encoder: cinemaniahdd
  • Mediainfo: Clic para Mostrar Datos Ver
  • Disquiet (2023) AMZN WEB-DL 1080p Latino [CNMNHDD].mkv
    Format                      : Matroska
    Format version              : Version 4
    File size                   : 2.19 GiB
    Duration                    : 1 h 24 min
    Overall bit rate            : 3 712 kb/s
    Movie name                  : Inquietud (2023) [1080p] - CinemaniaHDD.Net
    Encoded date                : UTC 2023-09-10 16:53:58
    Writing application         : mkvmerge v56.1.0 ('My Friend') 64-bit
    Writing library             : libebml v1.4.2 + libmatroska v1.6.4

    Video
    ID                          : 1
    Format                      : AVC
    Format/Info                 : Advanced Video Codec
    Format profile              : High@L4
    Format settings             : CABAC / 4 Ref Frames
    Format settings, CABAC      : Yes
    Format settings, Reference  : 4 frames
    Codec ID                    : V_MPEG4/ISO/AVC
    Duration                    : 1 h 24 min
    Bit rate mode               : Constant
    Bit rate                    : 2 462 kb/s
    Nominal bit rate            : 10 000 kb/s
    Width                       : 1 920 pixels
    Height                      : 1 080 pixels
    Display aspect ratio        : 16:9
    Frame rate mode             : Constant
    Frame rate                  : 23.976 (24000/1001) FPS
    Color space                 : YUV
    Chroma subsampling          : 4:2:0
    Bit depth                   : 8 bits
    Scan type                   : Progressive
    Bits/(Pixel*Frame)          : 0.050
    Stream size                 : 1.45 GiB (66%)
    Title                       : CinemaniaHDD
    Default                     : Yes
    Forced                      : No
    Color range                 : Limited
    Color primaries             : BT.709
    Transfer characteristics    : BT.709
    Matrix coefficients         : BT.709

    Audio #1
    ID                          : 2
    Format                      : AC-3
    Format/Info                 : Audio Coding 3
    Commercial name             : Dolby Digital
    Codec ID                    : A_AC3
    Duration                    : 1 h 24 min
    Bit rate mode               : Constant
    Bit rate                    : 384 kb/s
    Channel(s)                  : 2 channels
    Channel layout              : L R
    Sampling rate               : 48.0 kHz
    Frame rate                  : 31.250 FPS (1536 SPF)
    Compression mode            : Lossy
    Stream size                 : 232 MiB (10%)
    Title                       : Español latino [CinemaniaHDD]
    Language                    : Spanish
    Service kind                : Complete Main
    Default                     : Yes
    Forced                      : No

    Audio #2
    ID                          : 3
    Format                      : E-AC-3
    Format/Info                 : Enhanced AC-3
    Commercial name             : Dolby Digital Plus
    Codec ID                    : A_EAC3
    Duration                    : 1 h 24 min
    Bit rate mode               : Constant
    Bit rate                    : 224 kb/s
    Channel(s)                  : 2 channels
    Channel layout              : L R
    Sampling rate               : 48.0 kHz
    Frame rate                  : 31.250 FPS (1536 SPF)
    Compression mode            : Lossy
    Stream size                 : 135 MiB (6%)
    Title                       : Español latino / E-AC3 [CinemaniaHDD]
    Language                    : Spanish
    Service kind                : Complete Main
    Default                     : No
    Forced                      : No

    Audio #3
    ID                          : 4
    Format                      : E-AC-3
    Format/Info                 : Enhanced AC-3
    Commercial name             : Dolby Digital Plus
    Codec ID                    : A_EAC3
    Duration                    : 1 h 24 min
    Bit rate mode               : Constant
    Bit rate                    : 640 kb/s
    Channel(s)                  : 6 channels
    Channel layout              : L R C LFE Ls Rs
    Sampling rate               : 48.0 kHz
    Frame rate                  : 31.250 FPS (1536 SPF)
    Compression mode            : Lossy
    Stream size                 : 387 MiB (17%)
    Title                       : Inglés [CinemaniaHDD]
    Language                    : English
    Service kind                : Complete Main
    Default                     : No
    Forced                      : No

    Text #1
    ID                          : 5
    Format                      : UTF-8
    Codec ID                    : S_TEXT/UTF8
    Codec ID/Info               : UTF-8 Plain Text
    Duration                    : 1 h 21 min
    Bit rate                    : 0 b/s
    Count of elements           : 10
    Stream size                 : 161 Bytes (0%)
    Title                       : Forzados [CinemaniaHDD]
    Language                    : Spanish
    Default                     : Yes
    Forced                      : Yes

    Text #2
    ID                          : 6
    Format                      : UTF-8
    Codec ID                    : S_TEXT/UTF8
    Codec ID/Info               : UTF-8 Plain Text
    Duration                    : 1 h 23 min
    Bit rate                    : 36 b/s
    Count of elements           : 770
    Stream size                 : 22.2 KiB (0%)
    Title                       : Español latino [CinemaniaHDD]
    Language                    : Spanish
    Default                     : No
    Forced                      : No

    Text #3
    ID                          : 7
    Format                      : UTF-8
    Codec ID                    : S_TEXT/UTF8
    Codec ID/Info               : UTF-8 Plain Text
    Duration                    : 1 h 19 min
    Bit rate                    : 46 b/s
    Count of elements           : 1167
    Stream size                 : 27.1 KiB (0%)
    Title                       : Inglés [CinemaniaHDD]
    Language                    : English
    Default                     : No
    Forced                      : No

     

  • Peso: 2.19 GiB

Sinopsis

Jonathan Rhys Meyers protagoniza esta película aterradora de suspenso. Luego de un accidente automovilístico casi mortal, Sam descubre que fuerzas misteriosas y siniestras lo tienen atrapado en un hospital abandonado, y que no quieren dejarlo ir…

Ficha técnica

Video trailer de la película

Enlaces de descarga

Rip de Bluray

Descargar Disquiet (2023) AMZN WEB-DL 1080p Latino




Aportes de DPeliculasHDmega la pass es:dpeliculashdmega.org Aportes de CinemaniaHD la pass es:cinemaniahdd.com Aportes recientes:cinemaniahdd.net
Guardado en : Horror , Mystery , Thriller

Películas relacionadas

  • Encierro (2023) NF WEB-DL 1080p Latino

    Encierro (2023) NF WEB-DL 1080p Latino

    2023
    Encierro (2023) NF WEB-DL 1080p Latino

    1h 36m 2023

    Descargar Encierro (2023) NF WEB-DL 1080p Latino. Un thriller romántico que enfrenta a Lina, recién...

    Director: Stephen Carney

    Género: Netflix

    Actores: Toby Ryan

  • Hermana Muerte (2023) NF WEB-DL 1080p Español

    Hermana Muerte (2023) NF WEB-DL 1080p Español

    2023
    Hermana Muerte (2023) NF WEB-DL 1080p Español

    1h 31m 2023

    Descargar Hermana Muerte (2023) NF WEB-DL 1080p Español. En la España de la posguerra civil, Narcisa,...

    Director: Paco Plaza

    Género: Drama

    Actores: Sara Roch

  • El Gran Truco (2006) Full HD 1080p Latino

    El Gran Truco (2006) Full HD 1080p Latino

    2006
    El Gran Truco (2006) Full HD 1080p Latino

    2h 10m 2006

    Descargar El Gran Truco (2006) Full HD 1080p Latino. Robert Angier es un ilusionista respetado que se...

    Director: Steve Gehrke

    Género: Drama

    Actores: William Morgan Sheppard

  • Mansión embrujada (2023) HD 1080p Latino

    Mansión embrujada (2023) HD 1080p Latino

    2023
    Mansión embrujada (2023) HD 1080p Latino

    2h 3m 2023

    Descargar Mansión embrujada (2023) HD 1080p Latino. Inspirada en la clásica atracción del parque temático,...

    Director: Tyler Wade Vaughn

    Género: Comedy

    Actores: Winona Ryder

descargar Disquiet (2023) AMZN WEB-DL 1080p Latino 1080p 1080p gratis, Disquiet (2023) AMZN WEB-DL 1080p Latino 1080p mega 1 link, Disquiet (2023) AMZN WEB-DL 1080p Latino 1080p pelicula completa, descargar Disquiet (2023) AMZN WEB-DL 1080p Latino 1080p gratis en mega.

Disquiet (2023) AMZN WEB-DL 1080p Latino pelicula full hd, Disquiet (2023) AMZN WEB-DL 1080p Latino mega latino, Disquiet (2023) AMZN WEB-DL 1080p Latino 4k latino, Disquiet (2023) AMZN WEB-DL 1080p Latino pelicula completa, Disquiet (2023) AMZN WEB-DL 1080p Latino descargar gratis, descargar Disquiet (2023) AMZN WEB-DL 1080p Latino pelicula latino, Disquiet (2023) AMZN WEB-DL 1080p Latino 1 link mega, Disquiet (2023) AMZN WEB-DL 1080p Latino 1 link google drive, Disquiet (2023) AMZN WEB-DL 1080p Latino hd 1080p latino.
Comentarios 0