×

¿Problemas para descargar con Mozilla, EDGE? Deshabilita la opción "Abrir vinculos en una pestaña nueva" tal como lo muestra ésta imagen.

El Gran Truco (2006) Full HD 1080p Latino

145 vistas

Información de El Gran Truco (2006) Full HD 1080p Latino

Datos de la película

  • Calidad: Full 1080p
  • Audio: Se especifica abajo de la Sinopsis
  • Subtitulos: Español Latino PGS - Ingles PGS
  • Resolución: 1920x1080p
  • Formato: MKV
  • Codec: H.264
  • Encoder: CinefiloCool
  • Mediainfo: Clic para Mostrar Datos Ver
  • El Gran Truco (2006) Full HD 1080p Latino-CMHDD.mkv
    Format                      : Matroska
    Format version              : Version 4
    File size                   : 7.07 GiB
    Duration                    : 2 h 10 min
    Overall bit rate            : 7 752 kb/s
    Movie name                  : The Prestige (2006) CinemaniaHDD.Net
    Encoded date                : UTC 2023-10-20 03:38:22
    Writing application         : mkvmerge v56.1.0 ('My Friend') 64-bit
    Writing library             : libebml v1.4.2 + libmatroska v1.6.4
    Attachments                 : CINEMANIAHD.png

    Video
    ID                          : 1
    Format                      : AVC
    Format/Info                 : Advanced Video Codec
    Format profile              : High@L4.1
    Format settings             : CABAC / 4 Ref Frames
    Format settings, CABAC      : Yes
    Format settings, Reference  : 4 frames
    Codec ID                    : V_MPEG4/ISO/AVC
    Duration                    : 2 h 10 min
    Bit rate                    : 4 939 kb/s
    Width                       : 1 920 pixels
    Height                      : 1 080 pixels
    Display aspect ratio        : 16:9
    Frame rate mode             : Constant
    Frame rate                  : 23.976 (24000/1001) FPS
    Color space                 : YUV
    Chroma subsampling          : 4:2:0
    Bit depth                   : 8 bits
    Scan type                   : Progressive
    Bits/(Pixel*Frame)          : 0.099
    Stream size                 : 4.50 GiB (64%)
    Title                       : Full HD1080p [CinemaniaHDD]
    Writing library             : x264 core 163 r3059 b684ebe0
    Encoding settings           : cabac=1 / ref=4 / deblock=1:0:0 / analyse=0x3:0x133 / me=tesa / subme=11 / psy=1 / psy_rd=1.00:0.00 / mixed_ref=1 / me_range=24 / chroma_me=1 / trellis=2 / 8x8dct=1 / cqm=0 / deadzone=21,11 / fast_pskip=0 / chroma_qp_offset=-2 / threads=24 / lookahead_threads=6 / sliced_threads=0 / nr=0 / decimate=1 / interlaced=0 / bluray_compat=0 / constrained_intra=0 / bframes=16 / b_pyramid=2 / b_adapt=2 / b_bias=0 / direct=3 / weightb=1 / open_gop=0 / weightp=2 / keyint=240 / keyint_min=24 / scenecut=40 / intra_refresh=0 / rc_lookahead=60 / rc=crf / mbtree=1 / crf=20.0 / qcomp=0.60 / qpmin=0 / qpmax=69 / qpstep=4 / vbv_maxrate=62500 / vbv_bufsize=78125 / crf_max=0.0 / nal_hrd=none / filler=0 / ip_ratio=1.40 / aq=1:1.00
    Default                     : Yes
    Forced                      : Yes
    Color range                 : Limited
    Color primaries             : BT.709
    Transfer characteristics    : BT.709
    Matrix coefficients         : BT.709

    Audio #1
    ID                          : 2
    Format                      : AC-3
    Format/Info                 : Audio Coding 3
    Commercial name             : Dolby Digital
    Codec ID                    : A_AC3
    Duration                    : 2 h 10 min
    Bit rate mode               : Constant
    Bit rate                    : 640 kb/s
    Channel(s)                  : 6 channels
    Channel layout              : L R C LFE Ls Rs
    Sampling rate               : 48.0 kHz
    Frame rate                  : 31.250 FPS (1536 SPF)
    Compression mode            : Lossy
    Stream size                 : 597 MiB (8%)
    Title                       : Español Latino ORG BV [CinemaniaHDD]
    Language                    : Spanish
    Service kind                : Complete Main
    Default                     : Yes
    Forced                      : Yes

    Audio #2
    ID                          : 3
    Format                      : AC-3
    Format/Info                 : Audio Coding 3
    Commercial name             : Dolby Digital
    Codec ID                    : A_AC3
    Duration                    : 2 h 10 min
    Bit rate mode               : Constant
    Bit rate                    : 640 kb/s
    Channel(s)                  : 6 channels
    Channel layout              : L R C LFE Ls Rs
    Sampling rate               : 48.0 kHz
    Frame rate                  : 31.250 FPS (1536 SPF)
    Compression mode            : Lossy
    Stream size                 : 597 MiB (8%)
    Title                       : Español Latino ReDub WB [CinemaniaHDD]
    Language                    : Spanish
    Service kind                : Complete Main
    Default                     : No
    Forced                      : No

    Audio #3
    ID                          : 4
    Format                      : DTS
    Format/Info                 : Digital Theater Systems
    Codec ID                    : A_DTS
    Duration                    : 2 h 10 min
    Bit rate mode               : Constant
    Bit rate                    : 1 509 kb/s
    Channel(s)                  : 6 channels
    Channel layout              : C L R Ls Rs LFE
    Sampling rate               : 48.0 kHz
    Frame rate                  : 93.750 FPS (512 SPF)
    Bit depth                   : 24 bits
    Compression mode            : Lossy
    Stream size                 : 1.38 GiB (19%)
    Title                       : Ingles [CinemaniaHDD]
    Language                    : English
    Default                     : No
    Forced                      : No

    Text #1
    ID                          : 5
    Format                      : PGS
    Muxing mode                 : zlib
    Codec ID                    : S_HDMV/PGS
    Codec ID/Info               : Picture based subtitle format used on BDs/HD-DVDs
    Duration                    : 2 h 9 min
    Bit rate                    : 23.7 kb/s
    Count of elements           : 3130
    Stream size                 : 22.0 MiB (0%)
    Title                       : Español-PGS [CinemaniaHDD]
    Language                    : Spanish
    Default                     : No
    Forced                      : No

    Text #2
    ID                          : 6
    Format                      : PGS
    Muxing mode                 : zlib
    Codec ID                    : S_HDMV/PGS
    Codec ID/Info               : Picture based subtitle format used on BDs/HD-DVDs
    Duration                    : 2 h 9 min
    Bit rate                    : 34.6 kb/s
    Count of elements           : 3316
    Stream size                 : 32.0 MiB (0%)
    Title                       : Ingles-PGS [CinemaniaHDD]
    Language                    : English
    Default                     : No
    Forced                      : No

    Text #3
    ID                          : 7
    Format                      : UTF-8
    Codec ID                    : S_TEXT/UTF8
    Codec ID/Info               : UTF-8 Plain Text
    Duration                    : 2 h 9 min
    Bit rate                    : 0 b/s
    Count of elements           : 11
    Stream size                 : 254 Bytes (0%)
    Title                       : Forzados-SRT [CinemaniaHDD]
    Language                    : Spanish
    Default                     : Yes
    Forced                      : Yes

    Text #4
    ID                          : 8
    Format                      : UTF-8
    Codec ID                    : S_TEXT/UTF8
    Codec ID/Info               : UTF-8 Plain Text
    Duration                    : 2 h 9 min
    Bit rate                    : 57 b/s
    Count of elements           : 1562
    Stream size                 : 54.1 KiB (0%)
    Title                       : Español-SRT [CinemaniaHDD]
    Language                    : Spanish
    Default                     : No
    Forced                      : No

    Menu
    00:00:00.000                : Introduction
    00:03:30.210                : "Something Went Wrong..."
    00:07:45.465                : A Search for Answers
    00:11:40.700                : The Start of a Great Career
    00:16:03.963                : Total Devotion to His Art
    00:23:19.398                : A Strong Knot
    00:27:20.389                : More in Love With Magic
    00:33:59.829                : An Effective Form of Misdirection
    00:38:46.616                : The Great Danton
    00:44:34.005                : Happiness That Should Have Been Mine
    00:49:28.132                : Man's Reach Exceeds His Grasp
    00:53:28.455                : A Complex Illusion
    00:59:49.586                : The New Transported Man
    01:04:01.171                : The Mistress of My Enemy
    01:08:48.416                : Complete Power
    01:12:57.832                : The Keyword Is the Method
    01:17:47.204                : Secrets Are My Life
    01:23:16.658                : Exact Science Is Not an Exact Science
    01:35:49.243                : An Old Friend
    01:40:19.263                : Considerable Risk
    01:45:17.311                : The Prestige
    01:49:03.162                : A Better Magician
    01:55:06.608                : Are You Watching Closely?
    02:04:59.492                : End Credits

  • Peso: 7.07 GiB

Sinopsis

Descargar El Gran Truco (2006) Full HD 1080p Latino. Robert Angier es un ilusionista respetado que se obsesiona con uno de los trucos de su rival Alfred Borden. Para conseguir el truco hará todo lo posible, sin saber hasta qué punto cambiará su vida…

Audio Español Latino AC3 5.1 Dub 1 Buena Vista – AC3 5.1 Dub 2 Warner – Ingles DTS 5.1 Bluray

Ficha técnica

Video trailer de la película

Enlaces de descarga

Rip de Bluray

Descargar El Gran Truco (2006) Full HD 1080p Latino




Aportes de DPeliculasHDmega la pass es:dpeliculashdmega.org Aportes de CinemaniaHD la pass es:cinemaniahdd.com Aportes recientes:cinemaniahdd.net

Películas relacionadas

descargar El Gran Truco (2006) Full HD 1080p Latino Full 1080p 1080p gratis, El Gran Truco (2006) Full HD 1080p Latino Full 1080p mega 1 link, El Gran Truco (2006) Full HD 1080p Latino Full 1080p pelicula completa, descargar El Gran Truco (2006) Full HD 1080p Latino Full 1080p gratis en mega.

El Gran Truco (2006) Full HD 1080p Latino pelicula full hd, El Gran Truco (2006) Full HD 1080p Latino mega latino, El Gran Truco (2006) Full HD 1080p Latino 4k latino, El Gran Truco (2006) Full HD 1080p Latino pelicula completa, El Gran Truco (2006) Full HD 1080p Latino descargar gratis, descargar El Gran Truco (2006) Full HD 1080p Latino pelicula latino, El Gran Truco (2006) Full HD 1080p Latino 1 link mega, El Gran Truco (2006) Full HD 1080p Latino 1 link google drive, El Gran Truco (2006) Full HD 1080p Latino hd 1080p latino.
Comentarios 0