Cómo cortar a tu patán (2017) 1080p Latino

1.697 vistas
1 estrella2 estrellas3 estrellas4 estrellas5 estrellas (1 votos, promedio: 5,00 de 5)
Cargando…

Información de Cómo cortar a tu patán (2017) 1080p Latino

Datos de la película

  • Calidad: 1080p
  • Audio: Español Latino AC3 5.1 BLURAY
  • Subtitulos: No
  • Resolución: 1920X856p
  • Formato: MKV
  • Codec: H.264
  • Encoder: Dracarys
  • Mediainfo: Clic para Mostrar Datos Ver
  • Format                                   : Matroska
    Format version                           : Version 4 / Version 2
    File size                                : 2.62 GiB
    Duration                                 : 1 h 38 min
    Overall bit rate                         : 3 832 kb/s
    Movie name                               : CinemaniaHDD.com
    Encoded date                             : UTC 2018-01-28 05:22:27 / UTC 2018-01-28T04:45:32Z
    Writing application                      : mkvmerge v15.0.0 ('Duel with the Devil') 64-bit
    Writing library                          : libebml v1.3.5 + libmatroska v1.4.5 / Lavf57.7.2

    Video
    ID                                       : 1
    Format                                   : AVC
    Format/Info                              : Advanced Video Codec
    Format profile                           : [email protected]
    Format settings                          : CABAC / 4 Ref Frames
    Format settings, CABAC                   : Yes
    Format settings, RefFrames               : 4 frames
    Codec ID                                 : V_MPEG4/ISO/AVC
    Duration                                 : 1 h 38 min
    Bit rate                                 : 3 500 kb/s
    Width                                    : 1 920 pixels
    Height                                   : 856 pixels
    Display aspect ratio                     : 2.25:1
    Frame rate mode                          : Constant
    Frame rate                               : 23.976 (24000/1001) FPS
    Color space                              : YUV
    Chroma subsampling                       : 4:2:0
    Bit depth                                : 8 bits
    Scan type                                : Progressive
    Bits/(Pixel*Frame)                       : 0.089
    Stream size                              : 2.31 GiB (88%)
    Title                                    : Cómo cortar a tu patán (2017) 1080p Latino
    Writing library                          : x264 core 148 r2708 86b7198
    Encoding settings                        : cabac=1 / ref=3 / deblock=1:0:0 / analyse=0x3:0x113 / me=hex / subme=7 / psy=1 / psy_rd=1.00:0.00 / mixed_ref=1 / me_range=16 / chroma_me=1 / trellis=1 / 8x8dct=1 / cqm=0 / deadzone=21,11 / fast_pskip=1 / chroma_qp_offset=-2 / threads=27 / lookahead_threads=4 / sliced_threads=0 / nr=0 / decimate=1 / interlaced=0 / bluray_compat=0 / constrained_intra=0 / bframes=3 / b_pyramid=2 / b_adapt=1 / b_bias=0 / direct=1 / weightb=1 / open_gop=0 / weightp=2 / keyint=240 / keyint_min=24 / scenecut=40 / intra_refresh=0 / rc_lookahead=40 / rc=abr / mbtree=1 / bitrate=3500 / ratetol=1.0 / qcomp=0.60 / qpmin=0 / qpmax=69 / qpstep=4 / vbv_maxrate=62500 / vbv_bufsize=78125 / nal_hrd=none / filler=0 / ip_ratio=1.40 / aq=1:1.00
    Language                                 : English
    Default                                  : Yes
    Forced                                   : No
    Color range                              : Limited
    Color primaries                          : BT.709
    Transfer characteristics                 : BT.709
    Matrix coefficients                      : BT.709
    Statistics Tags Issue                    : mkvmerge v15.0.0 ('Duel with the Devil') 64-bit 2018-01-28 05:22:27 / mkvmerge v15.0.0 ('Duel with the Devil') 64-bit 2018-01-28 05:22:27 / UTC 2018-01-28T04:45:32Z
    FromStats_BitRate                        : 3446270
    FromStats_Duration                       : 01:38:00.917000000
    FromStats_FrameCount                     : 141000
    FromStats_StreamSize                     : 2533404032

    Audio
    ID                                       : 2
    Format                                   : AC-3
    Format/Info                              : Audio Coding 3
    Format settings, Endianness              : Big
    Codec ID                                 : A_AC3
    Duration                                 : 1 h 38 min
    Bit rate mode                            : Constant
    Bit rate                                 : 384 kb/s
    Channel(s)                               : 6 channels
    Channel positions                        : Front: L C R, Side: L R, LFE
    Sampling rate                            : 48.0 kHz
    Frame rate                               : 31.250 FPS (1536 SPF)
    Bit depth                                : 16 bits
    Compression mode                         : Lossy
    Delay relative to video                  : -5 ms
    Stream size                              : 269 MiB (10%)
    Language                                 : Spanish
    Service kind                             : Complete Main
    Default                                  : Yes
    Forced                                   : No
    Statistics Tags Issue                    : mkvmerge v15.0.0 ('Duel with the Devil') 64-bit 2018-01-28 05:22:27 / mkvmerge v15.0.0 ('Duel with the Devil') 64-bit 2018-01-28 05:22:27 / UTC 2018-01-28T04:45:32Z
    FromStats_BitRate                        : 384000
    FromStats_Duration                       : 01:38:00.896000000
    FromStats_FrameCount                     : 183778
    FromStats_StreamSize                     : 282283008

    Menu
    00:00:00.000                             : :Chapter 1
    00:07:48.760                             : :Chapter 2
    00:15:55.288                             : :Chapter 3
    00:23:32.953                             : :Chapter 4
    00:30:33.623                             : :Chapter 5
    00:39:32.787                             : :Chapter 6
    00:47:48.157                             : :Chapter 7
    00:55:53.934                             : :Chapter 8
    01:03:25.677                             : :Chapter 9
    01:13:16.851                             : :Chapter 10
    01:22:20.227                             : :Chapter 11
    01:30:31.843                             : :Chapter 12

  • Peso: 2.62 GiB

Sinopsis

Amanda (Mariana Treviño), terapeuta especializada en ayudar a las mujeres a terminar con relaciones destructivas, vive alejada de los hombres y el compromiso, enfocada en su trabajo y en proteger a su hermana Natalia (Camila Sodi). Cuando descubre que su hermana está enamorada de un patán, emprenderá un plan que la llevará a enfrentarse a su más grande miedo… el amor.

Ficha técnica

Video trailer de la película

Enlaces de descarga

Rip de Bluray

Descargar Cómo cortar a tu patán (2017) 1080p Latino




Aportes de DPeliculasHDmega la pass es:dpeliculashdmega.org Aportes de CinemaniaHD la pass es:cinemaniahdd.com
Guardado en : Sin categoría

Películas relacionadas

  • The Nanny (2018) WEB-DL 1080p Latino

    1 October 2018 (USA)
    The Nanny (2018) WEB-DL 1080p Latino

    0.0 1h 20min 1 October 2018 (USA)

    Una niña, Noa, sospecha que su nueva niñera no es de este mundo. Noa lucha para revelar la identidad...

    Director: Joel Novoa

    Género: Ciencia ficción

    Actores: Schuyler Fisk

  • The Hard Way (2019) 1080p WEB-DL Latino

    5th March 2019
    The Hard Way (2019) 1080p WEB-DL Latino

    0.0 1h 34m 5th March 2019

    Después de enterarse de que su hermano murió en una misión en Rumania, un ex soldado se une a dos...

    Director: Keoni Waxman

    Género: Acción

    Actores: Randy Couture

  • ¡Asu Mare! 3 (2018) 1080p WEB-DL Latino

    2018
    ¡Asu Mare! 3 (2018) 1080p WEB-DL Latino

    5.0 1h 40m 2018

    Cachin y Emilia, ya casados, se preparan para ser papás. Cachín consigue la ansiada visa a Estados...

    Género: Sin categoría

    Actores: Melania Urbina

Comentarios 2
  • AstralBlack - 28 enero, 2018

    Los links de mega? los de Google Drive ya no permiten descarga

    • Dracarys - 28 enero, 2018

      Agregados links de mega