×

¿Problemas para descargar con Mozilla, EDGE? Deshabilita la opción "Abrir vinculos en una pestaña nueva" tal como lo muestra ésta imagen.

Capitán América Civil War (2016) REMUX 1080p Latino

2.527 vistas

Información de Capitán América Civil War (2016) REMUX 1080p Latino

capitan america civil war 52687 poster

Datos de la película

  • Calidad: Full 1080p
  • Audio: Se especifica abajo de la Sinopsis
  • Subtitulos: Español Latino SRT- FORZADOS SRT
  • Resolución: 1920x1080p
  • Formato: MKV
  • Codec: H.264
  • Encoder: Dracarys
  • Mediainfo: Clic para Mostrar Datos Ver
  • Format                      : Matroska
    Format version              : Version 4
    File size                   : 30.5 GiB
    Duration                    : 2 h 27 min
    Overall bit rate mode       : Variable
    Overall bit rate            : 29.5 Mb/s
    Movie name                  : CinemaniaHDD.net
    Encoded date                : UTC 2019-04-24 04:10:03
    Writing application         : mkvmerge v30.1.0 ('Forever And More') 64-bit
    Writing library             : libebml v1.3.6 + libmatroska v1.4.9

    Video
    ID                          : 1
    Format                      : AVC
    Format/Info                 : Advanced Video Codec
    Format profile              : High@L4.1
    Format settings             : CABAC / 4 Ref Frames
    Format settings, CABAC      : Yes
    Format settings, ReFrames   : 4 frames
    Format settings, GOP        : M=3, N=12
    Codec ID                    : V_MPEG4/ISO/AVC
    Duration                    : 2 h 27 min
    Bit rate mode               : Variable
    Bit rate                    : 23.8 Mb/s
    Maximum bit rate            : 35.0 Mb/s
    Width                       : 1 920 pixels
    Height                      : 1 080 pixels
    Display aspect ratio        : 16:9
    Frame rate mode             : Constant
    Frame rate                  : 23.976 (24000/1001) FPS
    Color space                 : YUV
    Chroma subsampling          : 4:2:0
    Bit depth                   : 8 bits
    Scan type                   : Progressive
    Bits/(Pixel*Frame)          : 0.479
    Stream size                 : 24.6 GiB (81%)
    Language                    : English
    Default                     : Yes
    Forced                      : No

    Audio #1
    ID                          : 2
    Format                      : DTS XLL
    Format/Info                 : Digital Theater Systems
    Commercial name             : DTS-HD Master Audio
    Codec ID                    : A_DTS
    Duration                    : 2 h 27 min
    Bit rate mode               : Variable
    Bit rate                    : 4 699 kb/s
    Channel(s)                  : 8 channels
    Channel layout              : C L R LFE Lb Rb Lss Rss
    Sampling rate               : 48.0 kHz
    Frame rate                  : 93.750 FPS (512 SPF)
    Bit depth                   : 24 bits
    Compression mode            : Lossless
    Stream size                 : 4.85 GiB (16%)
    Language                    : English
    Default                     : No
    Forced                      : No

    Audio #2
    ID                          : 3
    Format                      : E-AC-3
    Format/Info                 : Enhanced AC-3
    Commercial name             : Dolby Digital Plus
    Format profile              : Blu-ray Disc
    Codec ID                    : A_EAC3
    Duration                    : 2 h 27 min
    Bit rate mode               : Constant
    Bit rate                    : 1 024 kb/s
    Channel(s)                  : 8 channels
    Channel layout              : L R C LFE Ls Rs Lb Rb
    Sampling rate               : 48.0 kHz
    Frame rate                  : 31.250 FPS (1536 SPF)
    Compression mode            : Lossy
    Stream size                 : 1.06 GiB (3%)
    Language                    : Spanish
    Service kind                : Complete Main
    Default                     : Yes
    Forced                      : Yes

    Text #1
    ID                          : 4
    Format                      : PGS
    Muxing mode                 : zlib
    Codec ID                    : S_HDMV/PGS
    Codec ID/Info               : Picture based subtitle format used on BDs/HD-DVDs
    Duration                    : 2 h 26 min
    Bit rate                    : 478 b/s
    Count of elements           : 136
    Stream size                 : 513 KiB (0%)
    Language                    : Spanish
    Default                     : No
    Forced                      : No

    Text #2
    ID                          : 5
    Format                      : UTF-8
    Codec ID                    : S_TEXT/UTF8
    Codec ID/Info               : UTF-8 Plain Text
    Duration                    : 2 h 26 min
    Bit rate                    : 1 b/s
    Count of elements           : 68
    Stream size                 : 1.30 KiB (0%)
    Language                    : Spanish
    Default                     : No
    Forced                      : No

  • Peso: 30.5 GiB

Sinopsis

«Captain America: Civil War” continúa la historia de “Avengers: Age of Ultron”, con Steve Rogers liderando un nuevo equipo de Vengadores en su esfuerzo por proteger a la humanidad. Tras otro incidente internacional relacionado con los Vengadores que ocasiona daños colaterales, la presión política fuerza a crear un sistema de registro y un cuerpo gubernamental para determinar cuándo se requiere los servicios del equipo. El nuevo status quo divide a los Vengadores mientras intentan salvar al mundo de un nuevo y perverso villano.»

 

 

Latino: E-AC3 7.1  –  Ingles: DTS-HD MA 7.1

Ficha técnica

Video trailer de la película

Enlaces de descarga

Rip de Bluray

Descargar Capitán América Civil War (2016) REMUX 1080p Latino




Aportes de DPeliculasHDmega la pass es:dpeliculashdmega.org Aportes de CinemaniaHD la pass es:cinemaniahdd.com
Guardado en : Acción , Aventura , Ciencia ficción , Remux

Películas relacionadas

descargar Capitán América Civil War (2016) REMUX 1080p Latino Full 1080p 1080p gratis, Capitán América Civil War (2016) REMUX 1080p Latino Full 1080p mega 1 link, Capitán América Civil War (2016) REMUX 1080p Latino Full 1080p pelicula completa, descargar Capitán América Civil War (2016) REMUX 1080p Latino Full 1080p gratis en mega.

Capitán América Civil War (2016) REMUX 1080p Latino pelicula full hd, Capitán América Civil War (2016) REMUX 1080p Latino mega latino, Capitán América Civil War (2016) REMUX 1080p Latino 4k latino, Capitán América Civil War (2016) REMUX 1080p Latino pelicula completa, Capitán América Civil War (2016) REMUX 1080p Latino descargar gratis, descargar Capitán América Civil War (2016) REMUX 1080p Latino pelicula latino, Capitán América Civil War (2016) REMUX 1080p Latino 1 link mega, Capitán América Civil War (2016) REMUX 1080p Latino 1 link google drive, Capitán América Civil War (2016) REMUX 1080p Latino hd 1080p latino.
Comentarios 1