×

¿Problemas para descargar con Mozilla, EDGE? Deshabilita la opción "Abrir vinculos en una pestaña nueva" tal como lo muestra ésta imagen.

The Mummy Returns (2001) REMUX 4K HDR Latino – CMHDD

167 vistas

Información de The Mummy Returns (2001) REMUX 4K HDR Latino – CMHDD

Datos de la película

  • Calidad: 4K HDR
  • Audio: Español Latino DTS 5.1 BLURAY - Ingles DTS-HD Master 7.1 BLURAY
  • Subtitulos: Español Latino PGS
  • Resolución: 3840x2160p
  • Formato: MKV
  • Codec: H.264
  • Encoder: Dracarys
  • Mediainfo: Clic para Mostrar Datos Ver
  • Format                      : Matroska
    Format version              : Version 4
    File size                   : 55.9 GiB
    Duration                    : 2 h 9 min
    Overall bit rate mode       : Variable
    Overall bit rate            : 61.7 Mb/s
    Movie name                  : The Mummy Returns (2001) REMUX 4K HDR Latino - CMHDD
    Encoded date                : UTC 2023-05-03 22:04:49
    Writing application         : mkvmerge v47.0.0 ('Black Flag') 64-bit
    Writing library             : libebml v1.3.10 + libmatroska v1.5.2

    Video
    ID                          : 1
    ID in the original source m : 4113 (0x1011)
    Format                      : HEVC
    Format/Info                 : High Efficiency Video Coding
    Format profile              : Main 10@L5.1@High
    HDR format                  : SMPTE ST 2086, HDR10 compatible
    Codec ID                    : V_MPEGH/ISO/HEVC
    Duration                    : 2 h 9 min
    Bit rate                    : 52.0 Mb/s
    Width                       : 3 840 pixels
    Height                      : 2 160 pixels
    Display aspect ratio        : 16:9
    Frame rate mode             : Constant
    Frame rate                  : 23.976 (24000/1001) FPS
    Color space                 : YUV
    Chroma subsampling          : 4:2:0 (Type 2)
    Bit depth                   : 10 bits
    Bits/(Pixel*Frame)          : 0.261
    Stream size                 : 47.0 GiB (84%)
    Writing library             : ATEME Titan File 3.7.9 (4.7.9.0)
    Language                    : English
    Default                     : No
    Forced                      : No
    Color range                 : Limited
    Color primaries             : BT.2020
    Transfer characteristics    : PQ
    Matrix coefficients         : BT.2020 non-constant
    Mastering display color pri : Display P3
    Mastering display luminance : min: 0.0050 cd/m2, max: 1000 cd/m2
    Maximum Content Light Level : 984 cd/m2
    Maximum Frame-Average Light : 302 cd/m2
    Original source medium      : Blu-ray

    Audio #1
    ID                          : 2
    ID in the original source m : 4352 (0x1100)
    Format                      : DTS XLL X
    Format/Info                 : Digital Theater Systems
    Commercial name             : DTS-HD Master Audio
    Codec ID                    : A_DTS
    Duration                    : 2 h 9 min
    Bit rate mode               : Variable
    Bit rate                    : 8 365 kb/s
    Channel(s)                  : 8 channels
    Channel(s)_Original         : Object Based
    ChannelLayout_Original      : Object Based
    Sampling rate               : 48.0 kHz
    Frame rate                  : 93.750 FPS (512 SPF)
    Bit depth                   : 24 bits
    Stream size                 : 7.57 GiB (14%)
    Title                       : DTS-X 7.1
    Language                    : English
    Default                     : No
    Forced                      : No
    Original source medium      : Blu-ray

    Audio #2
    ID                          : 3
    Format                      : AC-3
    Format/Info                 : Audio Coding 3
    Commercial name             : Dolby Digital
    Codec ID                    : A_AC3
    Duration                    : 2 h 9 min
    Bit rate mode               : Constant
    Bit rate                    : 640 kb/s
    Channel(s)                  : 6 channels
    Channel layout              : L R C LFE Ls Rs
    Sampling rate               : 48.0 kHz
    Frame rate                  : 31.250 FPS (1536 SPF)
    Compression mode            : Lossy
    Stream size                 : 593 MiB (1%)
    Title                       : DD 5.1
    Language                    : English
    Service kind                : Complete Main
    Default                     : No
    Forced                      : No

    Audio #3
    ID                          : 4
    ID in the original source m : 4354 (0x1102)
    Format                      : DTS
    Format/Info                 : Digital Theater Systems
    Codec ID                    : A_DTS
    Duration                    : 2 h 9 min
    Bit rate mode               : Constant
    Bit rate                    : 768 kb/s
    Channel(s)                  : 6 channels
    Channel layout              : C L R Ls Rs LFE
    Sampling rate               : 48.0 kHz
    Frame rate                  : 93.750 FPS (512 SPF)
    Bit depth                   : 24 bits
    Compression mode            : Lossy
    Stream size                 : 712 MiB (1%)
    Title                       : DTS 5.1
    Language                    : Spanish
    Default                     : Yes
    Forced                      : No
    Original source medium      : Blu-ray

    Text #1
    ID                          : 5
    ID in the original source m : 4769 (0x12A1)
    Format                      : PGS
    Muxing mode                 : zlib
    Codec ID                    : S_HDMV/PGS
    Codec ID/Info               : Picture based subtitle format used on BDs/HD-DVDs
    Duration                    : 2 h 1 min
    Bit rate                    : 22.1 kb/s
    Frame rate                  : 0.269 FPS
    Count of elements           : 1954
    Stream size                 : 19.2 MiB (0%)
    Language                    : Spanish
    Default                     : No
    Forced                      : No
    Original source medium      : Blu-ray

    Text #2
    ID                          : 6
    ID in the original source m : 4771 (0x12A3)
    Format                      : PGS
    Muxing mode                 : zlib
    Codec ID                    : S_HDMV/PGS
    Codec ID/Info               : Picture based subtitle format used on BDs/HD-DVDs
    Duration                    : 1 h 56 min
    Bit rate                    : 1 941 b/s
    Frame rate                  : 0.031 FPS
    Count of elements           : 218
    Stream size                 : 1.62 MiB (0%)
    Title                       : FORCED
    Language                    : Spanish
    Default                     : Yes
    Forced                      : No
    Original source medium      : Blu-ray

    Menu
    00:00:00.000                : en:Chapter 01
    00:04:40.113                : en:Chapter 02
    00:10:02.518                : en:Chapter 03
    00:13:32.394                : en:Chapter 04
    00:17:02.938                : en:Chapter 05
    00:23:19.773                : en:Chapter 06
    00:26:16.157                : en:Chapter 07
    00:35:24.247                : en:Chapter 08
    00:42:00.684                : en:Chapter 09
    00:46:50.724                : en:Chapter 10
    00:56:02.150                : en:Chapter 11
    01:06:36.033                : en:Chapter 12
    01:16:59.281                : en:Chapter 13
    01:27:32.664                : en:Chapter 14
    01:35:26.637                : en:Chapter 15
    01:42:43.073                : en:Chapter 16
    01:47:42.747                : en:Chapter 17
    01:51:19.839                : en:Chapter 18
    01:53:25.215                : en:Chapter 19
    02:01:48.175                : en:Chapter 20
    02:09:31.847                : en:Chapter 21

  • Peso: 55.9 GiB

Sinopsis

Han pasado diez años, Rick O’Connell se ha casado con Evelyn, y ambos son padres del pequeño Alex, de ocho años. Cuando, tras una serie de acontecimientos, la momia del antiguo sacerdote egipcio Im-Ho-Tep es resucitada por una extraña secta en el British Museum, y la maldición milenaria del Rey Escorpión -que seis mil años atrás traicionó al dios Anubis- lo devuelve a la vida, el choque entre ambas fuerzas malignas desencadenará el caos en el mundo… si Rick y Evelyn no consiguen evitarlo.

Ficha técnica

Video trailer de la película

Enlaces de descarga

Rip de Bluray

Descargar The Mummy Returns (2001) REMUX 4K HDR Latino – CMHDD


Aportes de DPeliculasHDmega la pass es:dpeliculashdmega.org Aportes de CinemaniaHD la pass es:cinemaniahdd.com Aportes recientes:cinemaniahdd.net
Guardado en : Acción , Aventura , Fantasía

Películas relacionadas

descargar The Mummy Returns (2001) REMUX 4K HDR Latino – CMHDD 4K HDR 1080p gratis, The Mummy Returns (2001) REMUX 4K HDR Latino – CMHDD 4K HDR mega 1 link, The Mummy Returns (2001) REMUX 4K HDR Latino – CMHDD 4K HDR pelicula completa, descargar The Mummy Returns (2001) REMUX 4K HDR Latino – CMHDD 4K HDR gratis en mega.

The Mummy Returns (2001) REMUX 4K HDR Latino – CMHDD pelicula full hd, The Mummy Returns (2001) REMUX 4K HDR Latino – CMHDD mega latino, The Mummy Returns (2001) REMUX 4K HDR Latino – CMHDD 4k latino, The Mummy Returns (2001) REMUX 4K HDR Latino – CMHDD pelicula completa, The Mummy Returns (2001) REMUX 4K HDR Latino – CMHDD descargar gratis, descargar The Mummy Returns (2001) REMUX 4K HDR Latino – CMHDD pelicula latino, The Mummy Returns (2001) REMUX 4K HDR Latino – CMHDD 1 link mega, The Mummy Returns (2001) REMUX 4K HDR Latino – CMHDD 1 link google drive, The Mummy Returns (2001) REMUX 4K HDR Latino – CMHDD hd 1080p latino.
Comentarios 0