×

¿Problemas para descargar con Mozilla, EDGE? Deshabilita la opción "Abrir vinculos en una pestaña nueva" tal como lo muestra ésta imagen.

Diamante de sangre (2006) REMUX 1080p Latino

385 vistas

Información de Diamante de sangre (2006) REMUX 1080p Latino

Datos de la película

  • Calidad: Full 1080p
  • Audio: Se especifica abajo de la Sinopsis
  • Subtitulos: Español Latino PGS - Ingles PGS
  • Resolución: 1920x1080p
  • Formato: MKV
  • Codec: H.264
  • Encoder: CinefiloCool
  • Mediainfo: Clic para Mostrar Datos Ver
  • Diamante De Sangre (2006) REMUX 1080p Latino-CMHDD.mkv
    Format                      : Matroska
    Format version              : Version 4
    File size                   : 15.8 GiB
    Duration                    : 2 h 23 min
    Overall bit rate mode       : Variable
    Overall bit rate            : 15.7 Mb/s
    Movie name                  : Blood Diamond (2006) CinemaniaHDD.Net
    Encoded date                : UTC 2022-02-16 07:57:44
    Writing application         : mkvmerge v56.1.0 ('My Friend') 64-bit
    Writing library             : libebml v1.4.2 + libmatroska v1.6.4
    Attachments                 : CINEMANIAHD.png

    Video
    ID                          : 1
    Format                      : VC-1
    Format profile              : Advanced@L3
    Codec ID                    : V_MS/VFW/FOURCC / WVC1
    Codec ID/Hint               : Microsoft
    Duration                    : 2 h 23 min
    Bit rate                    : 12.7 Mb/s
    Width                       : 1 920 pixels
    Height                      : 1 080 pixels
    Display aspect ratio        : 16:9
    Frame rate mode             : Constant
    Frame rate                  : 23.976 (24000/1001) FPS
    Color space                 : YUV
    Chroma subsampling          : 4:2:0
    Bit depth                   : 8 bits
    Scan type                   : Progressive
    Compression mode            : Lossy
    Bits/(Pixel*Frame)          : 0.255
    Stream size                 : 12.7 GiB (80%)
    Title                       : REMUX HD1080p [CinemaniaHDD]
    Default                     : Yes
    Forced                      : Yes

    Audio #1
    ID                          : 2
    Format                      : AC-3
    Format/Info                 : Audio Coding 3
    Commercial name             : Dolby Digital
    Codec ID                    : A_AC3
    Duration                    : 2 h 23 min
    Bit rate mode               : Constant
    Bit rate                    : 640 kb/s
    Channel(s)                  : 6 channels
    Channel layout              : L R C LFE Ls Rs
    Sampling rate               : 48.0 kHz
    Frame rate                  : 31.250 FPS (1536 SPF)
    Compression mode            : Lossy
    Stream size                 : 656 MiB (4%)
    Title                       : Español Latino [CinemaniaHDD]
    Language                    : Spanish
    Service kind                : Complete Main
    Default                     : Yes
    Forced                      : Yes

    Audio #2
    ID                          : 3
    Format                      : MLP FBA
    Format/Info                 : Meridian Lossless Packing FBA
    Commercial name             : Dolby TrueHD
    Codec ID                    : A_TRUEHD
    Duration                    : 2 h 23 min
    Bit rate mode               : Variable
    Bit rate                    : 1 695 kb/s
    Maximum bit rate            : 3 003 kb/s
    Channel(s)                  : 6 channels
    Channel layout              : L R C LFE Ls Rs
    Sampling rate               : 48.0 kHz
    Frame rate                  : 1 200.000 FPS (40 SPF)
    Compression mode            : Lossless
    Delay relative to video     : 42 ms
    Stream size                 : 1.70 GiB (11%)
    Title                       : Ingles [CinemaniaHDD]
    Language                    : English
    Default                     : No
    Forced                      : No

    Audio #3
    ID                          : 4
    Format                      : AC-3
    Format/Info                 : Audio Coding 3
    Commercial name             : Dolby Digital
    Codec ID                    : A_AC3
    Duration                    : 2 h 23 min
    Bit rate mode               : Constant
    Bit rate                    : 640 kb/s
    Channel(s)                  : 6 channels
    Channel layout              : L R C LFE Ls Rs
    Sampling rate               : 48.0 kHz
    Frame rate                  : 31.250 FPS (1536 SPF)
    Compression mode            : Lossy
    Stream size                 : 656 MiB (4%)
    Title                       : Ingles AC3 [CinemaniaHDD]
    Language                    : English
    Service kind                : Complete Main
    Default                     : No
    Forced                      : No

    Text #1
    ID                          : 5
    Format                      : PGS
    Muxing mode                 : zlib
    Codec ID                    : S_HDMV/PGS
    Codec ID/Info               : Picture based subtitle format used on BDs/HD-DVDs
    Duration                    : 2 h 14 min
    Bit rate                    : 2 330 b/s
    Count of elements           : 132
    Stream size                 : 2.24 MiB (0%)
    Title                       : Forzados-PGS [CinemaniaHDD]
    Language                    : Spanish
    Default                     : No
    Forced                      : No

    Text #2
    ID                          : 6
    Format                      : PGS
    Muxing mode                 : zlib
    Codec ID                    : S_HDMV/PGS
    Codec ID/Info               : Picture based subtitle format used on BDs/HD-DVDs
    Duration                    : 2 h 22 min
    Bit rate                    : 49.6 kb/s
    Count of elements           : 2926
    Stream size                 : 50.7 MiB (0%)
    Title                       : Español-PGS [CinemaniaHDD]
    Language                    : Spanish
    Default                     : No
    Forced                      : No

    Text #3
    ID                          : 7
    Format                      : PGS
    Muxing mode                 : zlib
    Codec ID                    : S_HDMV/PGS
    Codec ID/Info               : Picture based subtitle format used on BDs/HD-DVDs
    Duration                    : 2 h 22 min
    Bit rate                    : 45.8 kb/s
    Count of elements           : 2764
    Stream size                 : 46.6 MiB (0%)
    Title                       : Ingles-PGS [CinemaniaHDD]
    Language                    : English
    Default                     : No
    Forced                      : No

    Text #4
    ID                          : 8
    Format                      : UTF-8
    Codec ID                    : S_TEXT/UTF8
    Codec ID/Info               : UTF-8 Plain Text
    Duration                    : 2 h 11 min
    Bit rate                    : 1 b/s
    Count of elements           : 51
    Stream size                 : 1.57 KiB (0%)
    Title                       : Forzados-SRT [CinemaniaHDD]
    Language                    : Spanish
    Default                     : Yes
    Forced                      : Yes

    Text #5
    ID                          : 9
    Format                      : UTF-8
    Codec ID                    : S_TEXT/UTF8
    Codec ID/Info               : UTF-8 Plain Text
    Duration                    : 2 h 15 min
    Bit rate                    : 54 b/s
    Count of elements           : 1466
    Stream size                 : 53.9 KiB (0%)
    Title                       : Español-SRT [CinemaniaHDD]
    Language                    : Spanish
    Default                     : No
    Forced                      : No

    Menu
    00:00:00.000                : Chapter 1
    00:06:32.558                : Chapter 2
    00:08:57.537                : Chapter 3
    00:14:38.210                : Chapter 4
    00:18:05.250                : Chapter 5
    00:21:56.481                : Chapter 6
    00:27:35.987                : Chapter 7
    00:30:43.174                : Chapter 8
    00:34:48.086                : Chapter 9
    00:37:43.761                : Chapter 10
    00:41:20.811                : Chapter 11
    00:47:08.659                : Chapter 12
    00:50:19.683                : Chapter 13
    00:53:58.235                : Chapter 14
    00:57:38.621                : Chapter 15
    01:04:04.006                : Chapter 16
    01:08:51.460                : Chapter 17
    01:11:17.773                : Chapter 18
    01:16:19.908                : Chapter 19
    01:21:18.540                : Chapter 20
    01:24:27.228                : Chapter 21
    01:29:51.719                : Chapter 22
    01:34:16.984                : Chapter 23
    01:37:39.186                : Chapter 24
    01:43:13.020                : Chapter 25
    01:46:02.856                : Chapter 26
    01:50:56.983                : Chapter 27
    01:56:07.794                : Chapter 28
    01:59:04.470                : Chapter 29
    02:04:21.454                : Chapter 30
    02:08:59.064                : Chapter 31
    02:12:07.753                : Chapter 32
    02:14:56.922                : Chapter 33

  • Peso: 15.8 GiB

Sinopsis

Descargar Diamante de sangre (2006) REMUX 1080p Latino. Con el caos y la guerra civil que en los años 90 envolvió Sierra Leona como telón de fondo, «Diamante de sangre» es la historia de Danny Archer, un ex mercenario sudafricano, y Solomon Vandy, un pescador de Mende. Ambos hombres son africanos, pero sus historias y sus circunstancias son completamente diferentes. Sus destinos se unen en la búsqueda conjunta para recuperar un diamante rosa, poco común, que puede transformar sus vidas. Mientras se halla en prisión por contrabando, Archer se entera de que Solomon, quien fue separado de su familia y obligado a trabajar en las minas de diamantes, ha encontrado y escondido la extraordinaria piedra sin pulir. Con la ayuda de Maddy Bowen, una periodista americana cuyo idealismo se ve atenuado por una profunda relación con Archer, los dos hombres emprenden un viaje por territorio rebelde.

Audio Español Latino AC3 5.1 Bluray – Ingles True HD 5.1 + AC3 5.1 Bluray
Disponible Solo Para VIP!!!

Ficha técnica

Video trailer de la película

Enlaces de descarga

Rip de Bluray

Descargar Diamante de sangre (2006) REMUX 1080p Latino


Aportes de DPeliculasHDmega la pass es:dpeliculashdmega.org Aportes de CinemaniaHD la pass es:cinemaniahdd.com
Guardado en : Acción , Drama , Remux , Suspenso

Películas relacionadas

Diamante de sangre (2006) REMUX 1080p Latino pelicula full hd, Diamante de sangre (2006) REMUX 1080p Latino mega latino, Diamante de sangre (2006) REMUX 1080p Latino 4k latino, Diamante de sangre (2006) REMUX 1080p Latino pelicula completa, Diamante de sangre (2006) REMUX 1080p Latino descargar gratis, descargar Diamante de sangre (2006) REMUX 1080p Latino pelicula latino, Diamante de sangre (2006) REMUX 1080p Latino 1 link mega, Diamante de sangre (2006) REMUX 1080p Latino 1 link google drive, Diamante de sangre (2006) REMUX 1080p Latino hd 1080p latino.
Comentarios 0