×

¿Problemas para descargar con Mozilla, EDGE? Deshabilita la opción "Abrir vinculos en una pestaña nueva" tal como lo muestra ésta imagen.

The Equalizer 2 (2018) REMUX 4K HDR Latino – CMHDD

151 vistas

Información de The Equalizer 2 (2018) REMUX 4K HDR Latino – CMHDD

Datos de la película

  • Calidad: 4K HDR
  • Audio: Español Latino AC3 5.1 BLURAY - Ingles AC3 5.1 BLURAY
  • Subtitulos: Español Latino PGS
  • Resolución: 3840x2160p
  • Formato: MKV
  • Codec: H.264
  • Encoder: Dracarys
  • Mediainfo: Clic para Mostrar Datos Ver
  • Format                      : Matroska
    Format version              : Version 4
    File size                   : 44.9 GiB
    Duration                    : 2 h 0 min
    Overall bit rate mode       : Variable
    Overall bit rate            : 53.1 Mb/s
    Movie name                  : The Equalizer 2 (2018) REMUX 4K HDR Latino - CMHDD
    Encoded date                : UTC 2021-07-28 01:30:08
    Writing application         : mkvmerge v56.1.0 ('My Friend') 64-bit
    Writing library             : libebml v1.4.2 + libmatroska v1.6.4
    Cover                       : Yes
    Attachments                 : cover.jpg

    Video
    ID                          : 1
    ID in the original source m : 4113 (0x1011)
    Format                      : HEVC
    Format/Info                 : High Efficiency Video Coding
    Format profile              : Main 10@L5.1@High
    HDR format                  : SMPTE ST 2086, HDR10 compatible
    Codec ID                    : V_MPEGH/ISO/HEVC
    Duration                    : 2 h 0 min
    Bit rate                    : 47.5 Mb/s
    Width                       : 3 840 pixels
    Height                      : 2 160 pixels
    Display aspect ratio        : 16:9
    Frame rate mode             : Constant
    Frame rate                  : 23.976 (24000/1001) FPS
    Color space                 : YUV
    Chroma subsampling          : 4:2:0 (Type 2)
    Bit depth                   : 10 bits
    Bits/(Pixel*Frame)          : 0.239
    Stream size                 : 40.1 GiB (89%)
    Default                     : Yes
    Forced                      : No
    Color range                 : Limited
    Color primaries             : BT.2020
    Transfer characteristics    : PQ
    Matrix coefficients         : BT.2020 non-constant
    Mastering display color pri : Display P3
    Mastering display luminance : min: 0.0050 cd/m2, max: 4000 cd/m2
    Maximum Content Light Level : 4000 cd/m2
    Maximum Frame-Average Light : 909 cd/m2
    Original source medium      : Blu-ray

    Audio #1
    ID                          : 2
    ID in the original source m : 4352 (0x1100)
    Format                      : MLP FBA 16-ch
    Format/Info                 : Meridian Lossless Packing FBA with 16-channel presentation
    Commercial name             : Dolby TrueHD with Dolby Atmos
    Codec ID                    : A_TRUEHD
    Duration                    : 2 h 0 min
    Bit rate mode               : Variable
    Bit rate                    : 4 253 kb/s
    Maximum bit rate            : 7 884 kb/s
    Channel(s)                  : 8 channels
    Channel layout              : L R C LFE Ls Rs Lb Rb
    Sampling rate               : 48.0 kHz
    Frame rate                  : 1 200.000 FPS (40 SPF)
    Compression mode            : Lossless
    Stream size                 : 3.59 GiB (8%)
    Language                    : English
    Default                     : No
    Forced                      : No
    Original source medium      : Blu-ray
    Number of dynamic objects   : 11
    Bed channel count           : 1 channel
    Bed channel configuration   : LFE

    Audio #2
    ID                          : 3
    ID in the original source m : 4352 (0x1100)
    Format                      : AC-3
    Format/Info                 : Audio Coding 3
    Commercial name             : Dolby Digital
    Codec ID                    : A_AC3
    Duration                    : 2 h 0 min
    Bit rate mode               : Constant
    Bit rate                    : 640 kb/s
    Channel(s)                  : 6 channels
    Channel layout              : L R C LFE Ls Rs
    Sampling rate               : 48.0 kHz
    Frame rate                  : 31.250 FPS (1536 SPF)
    Compression mode            : Lossy
    Stream size                 : 554 MiB (1%)
    Language                    : English
    Service kind                : Complete Main
    Default                     : No
    Forced                      : No
    Original source medium      : Blu-ray

    Audio #3
    ID                          : 4
    ID in the original source m : 4359 (0x1107)
    Format                      : AC-3
    Format/Info                 : Audio Coding 3
    Commercial name             : Dolby Digital
    Codec ID                    : A_AC3
    Duration                    : 2 h 0 min
    Bit rate mode               : Constant
    Bit rate                    : 640 kb/s
    Channel(s)                  : 6 channels
    Channel layout              : L R C LFE Ls Rs
    Sampling rate               : 48.0 kHz
    Frame rate                  : 31.250 FPS (1536 SPF)
    Compression mode            : Lossy
    Stream size                 : 554 MiB (1%)
    Language                    : Spanish
    Service kind                : Complete Main
    Default                     : Yes
    Forced                      : No
    Original source medium      : Blu-ray

    Text
    ID                          : 5
    ID in the original source m : 4781 (0x12AD)
    Format                      : PGS
    Muxing mode                 : zlib
    Codec ID                    : S_HDMV/PGS
    Codec ID/Info               : Picture based subtitle format used on BDs/HD-DVDs
    Duration                    : 1 h 59 min
    Bit rate                    : 20.4 kb/s
    Count of elements           : 2046
    Stream size                 : 17.5 MiB (0%)
    Language                    : Spanish
    Default                     : No
    Forced                      : No
    Original source medium      : Blu-ray

    Menu
    00:00:00.000                : Chapter 01
    00:06:50.034                : Chapter 02
    00:13:22.635                : Chapter 03
    00:16:43.460                : Chapter 04
    00:27:10.920                : Chapter 05
    00:34:05.460                : Chapter 06
    00:41:05.546                : Chapter 07
    00:47:08.617                : Chapter 08
    00:54:17.337                : Chapter 09
    01:02:17.817                : Chapter 10
    01:11:18.732                : Chapter 11
    01:18:39.131                : Chapter 12
    01:25:19.948                : Chapter 13
    01:31:40.244                : Chapter 14
    01:40:10.337                : Chapter 15
    01:52:14.728                : Chapter 16

  • Peso: 44.9 GiB

Sinopsis

Robert McCall (Denzel Washington) garantiza una justicia inquebrantable para los explotados y oprimidos, pero ¿hasta dónde llegará cuando se trate de alguien a quien ama?

Ficha técnica

Video trailer de la película

Enlaces de descarga

Rip de Bluray

Descargar The Equalizer 2 (2018) REMUX 4K HDR Latino – CMHDD


Aportes de DPeliculasHDmega la pass es:dpeliculashdmega.org Aportes de CinemaniaHD la pass es:cinemaniahdd.com
Guardado en : Acción , Crimen , Suspenso

Películas relacionadas

descargar The Equalizer 2 (2018) REMUX 4K HDR Latino – CMHDD 4K HDR 1080p gratis, The Equalizer 2 (2018) REMUX 4K HDR Latino – CMHDD 4K HDR mega 1 link, The Equalizer 2 (2018) REMUX 4K HDR Latino – CMHDD 4K HDR pelicula completa, descargar The Equalizer 2 (2018) REMUX 4K HDR Latino – CMHDD 4K HDR gratis en mega.

The Equalizer 2 (2018) REMUX 4K HDR Latino – CMHDD pelicula full hd, The Equalizer 2 (2018) REMUX 4K HDR Latino – CMHDD mega latino, The Equalizer 2 (2018) REMUX 4K HDR Latino – CMHDD 4k latino, The Equalizer 2 (2018) REMUX 4K HDR Latino – CMHDD pelicula completa, The Equalizer 2 (2018) REMUX 4K HDR Latino – CMHDD descargar gratis, descargar The Equalizer 2 (2018) REMUX 4K HDR Latino – CMHDD pelicula latino, The Equalizer 2 (2018) REMUX 4K HDR Latino – CMHDD 1 link mega, The Equalizer 2 (2018) REMUX 4K HDR Latino – CMHDD 1 link google drive, The Equalizer 2 (2018) REMUX 4K HDR Latino – CMHDD hd 1080p latino.
Comentarios 0