×

¿Problemas para descargar con Mozilla, EDGE? Deshabilita la opción "Abrir vinculos en una pestaña nueva" tal como lo muestra ésta imagen.

Batman: El caballero de la noche (2008) PLACEBO 1080p Latino

3.049 vistas

Información de Batman: El caballero de la noche (2008) PLACEBO 1080p Latino

Datos de la película

  • Calidad: Full 1080p
  • Audio: Español Latino AC3 5.1 BLURAY - Ingles DTS 5.1 BLURAY
  • Subtitulos: Español Latino PGS - Ingles PGS
  • Resolución: 1920x1080
  • Formato: MKV
  • Codec: H.264
  • Encoder: cinemaniahdd
  • Mediainfo: Clic para Mostrar Datos Ver
  • Batman - El caballero de la noche (2008) PLACEBO 1080p Latino.mkv
    Format                      : Matroska
    Format version              : Version 4
    File size                   : 8.40 GiB
    Duration                    : 2 h 32 min
    Overall bit rate mode       : Variable
    Overall bit rate            : 7 896 kb/s
    Movie name                  : Batman - El caballero de la noche (2008) PLACEBO 1080p Latino
    Encoded date                : UTC 2019-09-16 00:30:13
    Writing application         : mkvmerge v35.0.0 ('All The Love In The World') 64-bit
    Writing library             : libebml v1.3.9 + libmatroska v1.5.2

    Video
    ID                          : 1
    Format                      : AVC
    Format/Info                 : Advanced Video Codec
    Format profile              : High@L4.1
    Format settings             : CABAC / 4 Ref Frames
    Format settings, CABAC      : Yes
    Format settings, ReFrames   : 4 frames
    Codec ID                    : V_MPEG4/ISO/AVC
    Duration                    : 2 h 32 min
    Bit rate                    : 5 654 kb/s
    Width                       : 1 920 pixels
    Height                      : 1 080 pixels
    Display aspect ratio        : 16:9
    Frame rate mode             : Constant
    Frame rate                  : 23.976 (24000/1001) FPS
    Color space                 : YUV
    Chroma subsampling          : 4:2:0
    Bit depth                   : 8 bits
    Scan type                   : Progressive
    Bits/(Pixel*Frame)          : 0.114
    Stream size                 : 6.01 GiB (72%)
    Title                       : CinemaniaHDD
    Writing library             : x264 core 148 r2708 86b7198
    Encoding settings           : cabac=1 / ref=4 / deblock=1:0:0 / analyse=0x3:0x133 / me=esa / subme=10 / psy=1 / psy_rd=1.00:0.00 / mixed_ref=1 / me_range=24 / chroma_me=1 / trellis=2 / 8x8dct=1 / cqm=0 / deadzone=21,11 / fast_pskip=1 / chroma_qp_offset=-2 / threads=12 / lookahead_threads=2 / sliced_threads=0 / nr=0 / decimate=1 / interlaced=0 / bluray_compat=0 / constrained_intra=0 / bframes=8 / b_pyramid=2 / b_adapt=2 / b_bias=0 / direct=3 / weightb=1 / open_gop=0 / weightp=2 / keyint=240 / keyint_min=24 / scenecut=40 / intra_refresh=0 / rc_lookahead=60 / rc=crf / mbtree=1 / crf=20.0 / qcomp=0.60 / qpmin=0 / qpmax=69 / qpstep=4 / vbv_maxrate=62500 / vbv_bufsize=78125 / crf_max=0.0 / nal_hrd=none / filler=0 / ip_ratio=1.40 / aq=1:1.00
    Default                     : Yes
    Forced                      : No
    Color range                 : Limited
    Color primaries             : BT.709
    Transfer characteristics    : BT.709
    Matrix coefficients         : BT.709

    Audio #1
    ID                          : 2
    Format                      : AC-3
    Format/Info                 : Audio Coding 3
    Commercial name             : Dolby Digital
    Codec ID                    : A_AC3
    Duration                    : 2 h 32 min
    Bit rate mode               : Constant
    Bit rate                    : 640 kb/s
    Channel(s)                  : 6 channels
    Channel layout              : L R C LFE Ls Rs
    Sampling rate               : 48.0 kHz
    Frame rate                  : 31.250 FPS (1536 SPF)
    Bit depth                   : 16 bits
    Compression mode            : Lossy
    Stream size                 : 697 MiB (8%)
    Title                       : Español latino [CinemaniaHDD]
    Language                    : Spanish
    Service kind                : Complete Main
    Default                     : Yes
    Forced                      : No

    Audio #2
    ID                          : 3
    Format                      : MLP FBA
    Format/Info                 : Meridian Lossless Packing FBA
    Commercial name             : Dolby TrueHD
    Codec ID                    : A_TRUEHD
    Duration                    : 2 h 32 min
    Bit rate mode               : Variable
    Bit rate                    : 1 505 kb/s
    Maximum bit rate            : 3 267 kb/s
    Channel(s)                  : 6 channels
    Channel layout              : L R C LFE Ls Rs
    Sampling rate               : 48.0 kHz
    Frame rate                  : 1 200.000 FPS (40 SPF)
    Compression mode            : Lossless
    Delay relative to video     : 42 ms
    Stream size                 : 1.60 GiB (19%)
    Title                       : Inglés [CinemaniaHDD]
    Language                    : English
    Default                     : No
    Forced                      : No

    Text #1
    ID                          : 4
    Format                      : PGS
    Muxing mode                 : zlib
    Codec ID                    : S_HDMV/PGS
    Codec ID/Info               : Picture based subtitle format used on BDs/HD-DVDs
    Duration                    : 2 h 23 min
    Bit rate                    : 367 b/s
    Count of elements           : 44
    Stream size                 : 385 KiB (0%)
    Title                       : Forzados [CinemaniaHDD]
    Language                    : Spanish
    Default                     : Yes
    Forced                      : Yes

    Text #2
    ID                          : 5
    Format                      : PGS
    Muxing mode                 : zlib
    Codec ID                    : S_HDMV/PGS
    Codec ID/Info               : Picture based subtitle format used on BDs/HD-DVDs
    Duration                    : 2 h 30 min
    Bit rate                    : 30.5 kb/s
    Count of elements           : 3608
    Stream size                 : 32.8 MiB (0%)
    Title                       : Español latino [CinemaniaHDD]
    Language                    : Spanish
    Default                     : No
    Forced                      : No

    Text #3
    ID                          : 6
    Format                      : PGS
    Muxing mode                 : zlib
    Codec ID                    : S_HDMV/PGS
    Codec ID/Info               : Picture based subtitle format used on BDs/HD-DVDs
    Duration                    : 2 h 30 min
    Bit rate                    : 36.1 kb/s
    Count of elements           : 4020
    Stream size                 : 38.9 MiB (0%)
    Title                       : Inglés [CinemaniaHDD]
    Language                    : English
    Default                     : No
    Forced                      : No

    Menu
    00:00:00.000                : :Chapter 01
    00:06:23.966                : :Chapter 02
    00:10:36.260                : :Chapter 03
    00:13:52.581                : :Chapter 04
    00:17:54.198                : :Chapter 05
    00:21:39.339                : :Chapter 06
    00:26:10.026                : :Chapter 07
    00:29:36.274                : :Chapter 08
    00:31:42.483                : :Chapter 09
    00:37:49.058                : :Chapter 10
    00:43:34.069                : :Chapter 11
    00:46:39.546                : :Chapter 12
    00:48:57.768                : :Chapter 13
    00:53:19.446                : :Chapter 14
    00:57:15.640                : :Chapter 15
    00:59:26.354                : :Chapter 16
    01:03:59.627                : :Chapter 17
    01:08:23.557                : :Chapter 18
    01:10:48.327                : :Chapter 19
    01:14:24.918                : :Chapter 20
    01:18:05.639                : :Chapter 21
    01:22:22.437                : :Chapter 22
    01:24:48.583                : :Chapter 23
    01:30:48.443                : :Chapter 24
    01:34:04.972                : :Chapter 25
    01:39:57.783                : :Chapter 26
    01:42:05.494                : :Chapter 27
    01:44:59.918                : :Chapter 28
    01:47:00.872                : :Chapter 29
    01:51:09.913                : :Chapter 30
    01:54:14.639                : :Chapter 31
    01:57:04.017                : :Chapter 32
    02:00:14.248                : :Chapter 33
    02:03:37.576                : :Chapter 34
    02:09:07.614                : :Chapter 35
    02:12:27.314                : :Chapter 36
    02:15:22.781                : :Chapter 37
    02:19:58.681                : :Chapter 38
    02:24:26.658                : :Chapter 39

     

  • Peso: 8.40 GiB

Sinopsis

Batman/Bruce Wayne (Christian Bale) regresa para continuar su guerra contra el crimen. Con la ayuda del teniente Jim Gordon (Gary Oldman) y del Fiscal del Distrito Harvey Dent (Aaron Eckhart), Batman se propone destruir el crimen organizado en la ciudad de Gotham. El triunvirato demuestra su eficacia, pero, de repente, aparece Joker (Heath Ledger), un nuevo criminal que desencadena el caos y tiene aterrados a los ciudadanos.

Ficha técnica

Video trailer de la película

Enlaces de descarga

Rip de Bluray

Descargar Batman: El caballero de la noche (2008) PLACEBO 1080p Latino




Aportes de DPeliculasHDmega la pass es:dpeliculashdmega.org Aportes de CinemaniaHD la pass es:cinemaniahdd.com

Películas relacionadas

descargar Batman: El caballero de la noche (2008) PLACEBO 1080p Latino Full 1080p 1080p gratis, Batman: El caballero de la noche (2008) PLACEBO 1080p Latino Full 1080p mega 1 link, Batman: El caballero de la noche (2008) PLACEBO 1080p Latino Full 1080p pelicula completa, descargar Batman: El caballero de la noche (2008) PLACEBO 1080p Latino Full 1080p gratis en mega.

Batman: El caballero de la noche (2008) PLACEBO 1080p Latino pelicula full hd, Batman: El caballero de la noche (2008) PLACEBO 1080p Latino mega latino, Batman: El caballero de la noche (2008) PLACEBO 1080p Latino 4k latino, Batman: El caballero de la noche (2008) PLACEBO 1080p Latino pelicula completa, Batman: El caballero de la noche (2008) PLACEBO 1080p Latino descargar gratis, descargar Batman: El caballero de la noche (2008) PLACEBO 1080p Latino pelicula latino, Batman: El caballero de la noche (2008) PLACEBO 1080p Latino 1 link mega, Batman: El caballero de la noche (2008) PLACEBO 1080p Latino 1 link google drive, Batman: El caballero de la noche (2008) PLACEBO 1080p Latino hd 1080p latino.
Comentarios 3
  • Octavio Cesar posadas Martinez - 13 octubre, 2019

    Gracias y saludos

  • SW - 16 septiembre, 2019

    Muchas gracias, tiempo que no encontraba a esa calidad.

  • Luis Gómez - 16 septiembre, 2019

    Muchas Gracias.. por re subirlas.. el mejor joker de la historia