A Futile & Stupid Gesture (2018) WEB-DL 1080p Latino

519 vistas
1 estrella2 estrellas3 estrellas4 estrellas5 estrellas (1 votos, promedio: 5,00 de 5)
Cargando…

Información de A Futile & Stupid Gesture (2018) WEB-DL 1080p Latino

Datos de la película

  • Calidad: WEBDL
  • Audio: Español Latino AC3 5.1 Netflix - Ingles AC3 5.1 Netflix
  • Subtitulos: Español Latino SRT- FORZADOS SRT
  • Resolución: 1920X1080p
  • Formato: MKV
  • Codec: H.264
  • Encoder: CinemaniaHD
  • Mediainfo: Clic para Mostrar Datos Ver
  • Format                                   : Matroska
    Format version                           : Version 4 / Version 2
    File size                                : 3.10 GiB
    Duration                                 : 1 h 41 min
    Overall bit rate mode                    : Variable
    Overall bit rate                         : 4 347 kb/s
    Movie name                               : CinemaniaHDD.com
    Encoded date                             : UTC 2018-01-26 13:50:05
    Writing application                      : mkvmerge v15.0.0 ('Duel with the Devil') 64-bit
    Writing library                          : libebml v1.3.5 + libmatroska v1.4.5

    Video
    ID                                       : 1
    Format                                   : AVC
    Format/Info                              : Advanced Video Codec
    Format profile                           : [email protected]
    Format settings                          : CABAC / 3 Ref Frames
    Format settings, CABAC                   : Yes
    Format settings, RefFrames               : 3 frames
    Codec ID                                 : V_MPEG4/ISO/AVC
    Duration                                 : 1 h 41 min
    Bit rate mode                            : Variable
    Bit rate                                 : 3 830 kb/s
    Maximum bit rate                         : 5 745 kb/s
    Width                                    : 1 920 pixels
    Height                                   : 1 080 pixels
    Display aspect ratio                     : 16:9
    Frame rate mode                          : Constant
    Frame rate                               : 23.976 (24000/1001) FPS
    Color space                              : YUV
    Chroma subsampling                       : 4:2:0
    Bit depth                                : 8 bits
    Scan type                                : Progressive
    Bits/(Pixel*Frame)                       : 0.077
    Stream size                              : 2.68 GiB (87%)
    Title                                    : A Futile & Stupid Gesture (2018) WEB-DL 1080p Latino
    Writing library                          : x264 core 148 r2714 2daf636
    Encoding settings                        : cabac=1 / ref=3 / deblock=1:0:0 / analyse=0x1:0x111 / me=umh / subme=10 / psy=1 / psy_rd=1.00:0.00 / mixed_ref=1 / me_range=24 / chroma_me=1 / trellis=2 / 8x8dct=0 / cqm=0 / deadzone=21,11 / fast_pskip=1 / chroma_qp_offset=-2 / threads=8 / lookahead_threads=1 / sliced_threads=0 / nr=0 / decimate=1 / interlaced=0 / bluray_compat=0 / stitchable=1 / constrained_intra=0 / bframes=2 / b_pyramid=0 / b_adapt=2 / b_bias=0 / direct=3 / weightb=1 / open_gop=0 / weightp=2 / keyint=48 / keyint_min=25 / scenecut=0 / intra_refresh=0 / rc_lookahead=48 / rc=2pass / mbtree=1 / bitrate=3830 / ratetol=1.0 / qcomp=0.50 / qpmin=6 / qpmax=51 / qpstep=4 / cplxblur=20.0 / qblur=0.5 / vbv_maxrate=5745 / vbv_bufsize=7660 / nal_hrd=vbr / filler=0 / ip_ratio=1.40 / aq=1:1.00
    Language                                 : English
    Default                                  : Yes
    Forced                                   : No

    Audio #1
    ID                                       : 2
    Format                                   : E-AC-3
    Format/Info                              : Enhanced Audio Coding 3
    Format settings, Endianness              : Big
    Codec ID                                 : A_EAC3
    Duration                                 : 1 h 41 min
    Bit rate mode                            : Constant
    Bit rate                                 : 192 kb/s
    Channel(s)                               : 6 channels
    Channel positions                        : Front: L C R, Side: L R, LFE
    Sampling rate                            : 48.0 kHz
    Frame rate                               : 187.500 FPS (256 SPF)
    Compression mode                         : Lossy
    Stream size                              : 140 MiB (4%)
    Language                                 : Spanish
    Service kind                             : Complete Main
    Default                                  : Yes
    Forced                                   : No

    Audio #2
    ID                                       : 3
    Format                                   : AC-3
    Format/Info                              : Audio Coding 3
    Format settings, Endianness              : Big
    Codec ID                                 : A_AC3
    Duration                                 : 1 h 41 min
    Bit rate mode                            : Constant
    Bit rate                                 : 384 kb/s
    Channel(s)                               : 6 channels
    Channel positions                        : Front: L C R, Side: L R, LFE
    Sampling rate                            : 48.0 kHz
    Frame rate                               : 31.250 FPS (1536 SPF)
    Bit depth                                : 16 bits
    Compression mode                         : Lossy
    Stream size                              : 280 MiB (9%)
    Language                                 : English
    Service kind                             : Complete Main
    Default                                  : No
    Forced                                   : No

    Text #1
    ID                                       : 4
    Format                                   : UTF-8
    Codec ID                                 : S_TEXT/UTF8
    Codec ID/Info                            : UTF-8 Plain Text
    Duration                                 : 1 h 41 min
    Bit rate                                 : 165 b/s
    Count of elements                        : 1821
    Stream size                              : 123 KiB (0%)
    Language                                 : Spanish
    Default                                  : No
    Forced                                   : No

    Text #2
    ID                                       : 5
    Format                                   : UTF-8
    Codec ID                                 : S_TEXT/UTF8
    Codec ID/Info                            : UTF-8 Plain Text
    Duration                                 : 1 h 41 min
    Bit rate                                 : 5 b/s
    Count of elements                        : 67
    Stream size                              : 3.80 KiB (0%)
    Title                                    : Forzados
    Language                                 : Spanish
    Default                                  : Yes
    Forced                                   : Yes

  • Peso: 3.10 GiB

Sinopsis

En los años 70 y 80, el éxito y la influencia de la revista National Lampoon dio pie a que se creara un nuevo imperio mediático supervisado en parte por el brillante y afligido Doug Kenney.

Ficha técnica

  • Titulo original: A Futile & Stupid Gesture
  • Fecha de lanzamiento: 26-01-2018 (United States of America)
  • Director: David Wain
  • Género: Sin categoría
  • Puntuación: 5.0 1 votos
  • Duración:
    1 h 41 min

Video trailer de la película

Enlaces de descarga

Rip de Bluray

Descargar A Futile & Stupid Gesture (2018) WEB-DL 1080p Latino




Aportes de DPeliculasHDmega la pass es:dpeliculashdmega.org Aportes de CinemaniaHD la pass es:cinemaniahdd.com
Guardado en : Sin categoría

Películas relacionadas

  • The Hard Way (2019) 1080p WEB-DL Latino

    5th March 2019
    The Hard Way (2019) 1080p WEB-DL Latino

    0.0 1h 34m 5th March 2019

    Después de enterarse de que su hermano murió en una misión en Rumania, un ex soldado se une a dos...

    Director: Keoni Waxman

    Género: Acción

    Actores: Randy Couture

  • ¡Asu Mare! 3 (2018) 1080p WEB-DL Latino

    2018
    ¡Asu Mare! 3 (2018) 1080p WEB-DL Latino

    5.0 1h 40m 2018

    Cachin y Emilia, ya casados, se preparan para ser papás. Cachín consigue la ansiada visa a Estados...

    Género: Sin categoría

    Actores: Melania Urbina

  • Cómo cortar a tu patán (2017) 1080p Latino

    2017
    Cómo cortar a tu patán (2017) 1080p Latino

    5.0 1 h 38 min 2017

    Amanda (Mariana Treviño), terapeuta especializada en ayudar a las mujeres a terminar con relaciones...

    Director: Vivian Brown

    Género: Sin categoría

    Actores: Sebastián Zurita

Comentarios 0