×

¿Problemas para descargar con Mozilla, EDGE? Deshabilita la opción "Abrir vinculos en una pestaña nueva" tal como lo muestra ésta imagen.

You Don’t Mess with the Zohan (2008) [UNRATED EXTENDED] REMUX 1080p Latino – CMHDD

66 vistas

Información de You Don’t Mess with the Zohan (2008) [UNRATED EXTENDED] REMUX 1080p Latino – CMHDD

Datos de la película

  • Calidad:
  • Audio: Español Latino AC3 5.1 BLURAY - Ingles AC3 5.1 BLURAY
  • Subtitulos: Español Latino SRT
  • Resolución: 19201080p
  • Formato: MKV
  • Codec: H.264
  • Encoder: Dracarys
  • Mediainfo: Clic para Mostrar Datos Ver
  • Format                      : Matroska
    Format version              : Version 4
    File size                   : 19.9 GiB
    Duration                    : 1 h 56 min
    Overall bit rate mode       : Variable
    Overall bit rate            : 24.4 Mb/s
    Movie name                  : You Don't Mess with the Zohan (2008) [UNRATED EXTENDED] REMUX 1080p Latino - CMHDD
    Encoded date                : UTC 2023-12-08 02:36:49
    Writing application         : mkvmerge v47.0.0 ('Black Flag') 64-bit
    Writing library             : libebml v1.3.10 + libmatroska v1.5.2

    Video
    ID                          : 1
    Format                      : AVC
    Format/Info                 : Advanced Video Codec
    Format profile              : High@L4.1
    Format settings             : CABAC / 2 Ref Frames
    Format settings, CABAC      : Yes
    Format settings, Reference  : 2 frames
    Codec ID                    : V_MPEG4/ISO/AVC
    Duration                    : 1 h 56 min
    Bit rate mode               : Variable
    Bit rate                    : 21.9 Mb/s
    Width                       : 1 920 pixels
    Height                      : 1 080 pixels
    Display aspect ratio        : 16:9
    Frame rate mode             : Constant
    Frame rate                  : 23.976 (24000/1001) FPS
    Color space                 : YUV
    Chroma subsampling          : 4:2:0
    Bit depth                   : 8 bits
    Scan type                   : Progressive
    Bits/(Pixel*Frame)          : 0.441
    Stream size                 : 17.9 GiB (90%)
    Language                    : English
    Default                     : Yes
    Forced                      : No

    Audio #1
    ID                          : 2
    Format                      : AC-3
    Format/Info                 : Audio Coding 3
    Commercial name             : Dolby Digital
    Codec ID                    : A_AC3
    Duration                    : 1 h 56 min
    Bit rate mode               : Constant
    Bit rate                    : 384 kb/s
    Channel(s)                  : 6 channels
    Channel layout              : L R C LFE Ls Rs
    Sampling rate               : 48.0 kHz
    Frame rate                  : 31.250 FPS (1536 SPF)
    Compression mode            : Lossy
    Stream size                 : 321 MiB (2%)
    Language                    : Spanish
    Service kind                : Complete Main
    Default                     : Yes
    Forced                      : Yes

    Audio #2
    ID                          : 3
    Format                      : AC-3
    Format/Info                 : Audio Coding 3
    Commercial name             : Dolby Digital
    Codec ID                    : A_AC3
    Duration                    : 1 h 56 min
    Bit rate mode               : Constant
    Bit rate                    : 448 kb/s
    Channel(s)                  : 6 channels
    Channel layout              : L R C LFE Ls Rs
    Sampling rate               : 48.0 kHz
    Frame rate                  : 31.250 FPS (1536 SPF)
    Compression mode            : Lossy
    Stream size                 : 375 MiB (2%)
    Language                    : English
    Service kind                : Complete Main
    Default                     : No
    Forced                      : No

    Audio #3
    ID                          : 4
    Format                      : MLP FBA
    Format/Info                 : Meridian Lossless Packing FBA
    Commercial name             : Dolby TrueHD
    Codec ID                    : A_TRUEHD
    Duration                    : 1 h 56 min
    Bit rate mode               : Variable
    Bit rate                    : 1 578 kb/s
    Maximum bit rate            : 2 370 kb/s
    Channel(s)                  : 6 channels
    Channel layout              : L R C LFE Ls Rs
    Sampling rate               : 48.0 kHz
    Frame rate                  : 1 200.000 FPS (40 SPF)
    Compression mode            : Lossless
    Stream size                 : 1.29 GiB (6%)
    Language                    : English
    Default                     : No
    Forced                      : No

    Text
    ID                          : 5
    Format                      : UTF-8
    Codec ID                    : S_TEXT/UTF8
    Codec ID/Info               : UTF-8 Plain Text
    Duration                    : 1 h 49 min
    Bit rate                    : 75 b/s
    Frame rate                  : 0.251 FPS
    Count of elements           : 1646
    Stream size                 : 60.4 KiB (0%)
    Language                    : Spanish
    Default                     : No
    Forced                      : No

    Menu
    00:00:00.000                : en:01. Life's A Beach
    00:07:48.093                : en:02. Mom, Dad, I Want To Cut Hair
    00:13:38.568                : en:03. The Water Fight
    00:19:05.102                : en:04. Hello New York City
    00:28:12.983                : en:05. At The Disco
    00:34:19.432                : en:06. Its Sony Guts
    00:41:51.134                : en:07. Salon Clean-Up Boy
    00:47:51.869                : en:08. Debbie Quit - A Chair Is Open
    00:54:41.862                : en:09. New Salon - Ask For Scrappy
    01:02:44.344                : en:10. He's In There
    01:10:46.284                : en:11. Rent - We're Not Leaving
    01:18:20.362                : en:12. Go Home RagHeads
    01:26:10.498                : en:13. Phantom Orgy
    01:31:57.804                : en:14. Hacky Sack Mania
    01:39:24.583                : en:15. I No More Fight
    01:48:41.515                : en:16. Dreams Fulfilled

     

  • Peso: 19.9 GiB

Sinopsis

Zohan, un peculiar y muy competente agente israelí de los servicios secretos del Mossad, finge su muerte para poder trasladarse de Israel a Nueva York y cumplir allí el sueño de su vida: convertirse en peluquero y estilista. Aunque Zohan se ha propuesto olvidar su peligrosa vida como agente de la lucha antiterrorista, pronto se da cuenta de que no es tan sencillo.

Ficha técnica

Video trailer de la película

Enlaces de descarga

Rip de Bluray

Descargar You Don’t Mess with the Zohan (2008) [UNRATED EXTENDED] REMUX 1080p Latino – CMHDD




Aportes de DPeliculasHDmega la pass es:dpeliculashdmega.org Aportes de CinemaniaHD la pass es:cinemaniahdd.com Aportes recientes:cinemaniahdd.net
Guardado en : Acción , Comedia

Películas relacionadas

  • Who Invited Charlie? (2023) AMZN WEB-DL 1080p Latino

    Who Invited Charlie? (2023) AMZN WEB-DL 1080p Latino

    2023
    Who Invited Charlie? (2023) AMZN WEB-DL 1080p Latino

    1h 41m 2023

    Phil y su familia buscan refugio en los Hamptons para esquivar la pandemia, pero su paz se acaba con...

    Director: Xavier Manrique

    Género: Comedia

    Actores: Xosha Roquemore

  • Players (2024) NF WEB-DL 1080p Latino

    Players (2024) NF WEB-DL 1080p Latino

    2024
    Players (2024) NF WEB-DL 1080p Latino

    1h 45m 2024

    Descargar Players (2024) NF WEB-DL 1080p Latino. Una periodista deportiva neoyorquina con un ingenioso...

    Director: Trish Sie

    Género: Comedia

    Actores: Veraalba Santa

  • Combate clandestino (2024) AMZN WEB-DL 1080p Latino

    Combate clandestino (2024) AMZN WEB-DL 1080p Latino

    2024
    Combate clandestino (2024) AMZN WEB-DL 1080p Latino

    1h 30m 2024

    Descargar Combate clandestino (2024) AMZN WEB-DL 1080p Latino. Un ex soldado a la deriva se convierte...

    Director: Christian Sesma

    Género: Acción

    Actores: Tyler Wombles

descargar You Don’t Mess with the Zohan (2008) [UNRATED EXTENDED] REMUX 1080p Latino – CMHDD 1080p gratis, You Don’t Mess with the Zohan (2008) [UNRATED EXTENDED] REMUX 1080p Latino – CMHDD mega 1 link, You Don’t Mess with the Zohan (2008) [UNRATED EXTENDED] REMUX 1080p Latino – CMHDD pelicula completa, descargar You Don’t Mess with the Zohan (2008) [UNRATED EXTENDED] REMUX 1080p Latino – CMHDD gratis en mega.

You Don’t Mess with the Zohan (2008) [UNRATED EXTENDED] REMUX 1080p Latino – CMHDD pelicula full hd, You Don’t Mess with the Zohan (2008) [UNRATED EXTENDED] REMUX 1080p Latino – CMHDD mega latino, You Don’t Mess with the Zohan (2008) [UNRATED EXTENDED] REMUX 1080p Latino – CMHDD 4k latino, You Don’t Mess with the Zohan (2008) [UNRATED EXTENDED] REMUX 1080p Latino – CMHDD pelicula completa, You Don’t Mess with the Zohan (2008) [UNRATED EXTENDED] REMUX 1080p Latino – CMHDD descargar gratis, descargar You Don’t Mess with the Zohan (2008) [UNRATED EXTENDED] REMUX 1080p Latino – CMHDD pelicula latino, You Don’t Mess with the Zohan (2008) [UNRATED EXTENDED] REMUX 1080p Latino – CMHDD 1 link mega, You Don’t Mess with the Zohan (2008) [UNRATED EXTENDED] REMUX 1080p Latino – CMHDD 1 link google drive, You Don’t Mess with the Zohan (2008) [UNRATED EXTENDED] REMUX 1080p Latino – CMHDD hd 1080p latino.
Comentarios 0